Loading...
Error

Прайд / Pride [2014 г., документальный, природа, флора, фауна, HDTVRip] Dub

Статистика раздачи
Размер:  1,09 GB   |    Зарегистрирован:  9 месяцев   |    Скачан:  0 раз

Полного источника не было: 9 месяцев

Сидов:  0  |  0 KB/s  ]   Личеров:  0  |  0 KB/s  ]

* - сиды/пиры с внешних источников

   
 
Автор Сообщение

ARI71 Пол:Муж

24-Фев-2016 19:06

Прайд / Pride


Год выпуска: 2014
Жанр: документальный, природа, флора, фауна
Страна: США, National Geographic Channels
Режиссер: Том Синацшке
Сюжет фильма:
Львы — символ отваги и силы — изучались людьми на протяжении многих десятилетий. Благодаря камерам тепловидения этот фильм раскроет последние тайны крупнейших кошек Африки. Мы проследим за двумя прайдами, обитающими в Южной Кении, днём и ночью, открывая ошеломительные детали поведения этих роскошных хищников. Трудные времена для львов наступают, когда огромные стада антилоп гну, которые раньше служили пищей для прайда, мигрируют на юг, в Серенгети. Мы будем наблюдать за ежедневной борьбой за выживание и увидим, как матери рискуют всем, чтобы вырастить своих детёнышей, защищая их от смертельных угроз, таких как питоны, бизоны и слоны. Однако самой большой угрозой являются другие львы. Мы станем свидетелями того, как решится судьба молодых львов, и когда группа молодых львов придёт, чтобы захватить власть над прайдом, ситуация накалится до предела.
Качество видео: HDTVRip

Продолжительность: 2 x ~ 00:44:00
Формат: AVI
Видео: XviD, 720x400, ~1567 kbps
Аудио: русский, дублированный, AC3 2.0, ~192.00 kbps
(тех. данные всех серий идентичны)
Фильм переведен и озвучен студией "Велес"
Текст читает Сергей Куприянов
-----------------------------------------
Документальный дубляж:
Голос рассказчика - полный дубляж
Интервью - слышна оригинальная речь
01. Прайд: Рискованный шаг
И днём, и ночью камеры следят за двумя львиными прайдами, открывая удивительные и уникальные подробности об их поведении, неизвестные ранее.
02. Прайд: Дни, полные опасности
Как прайд львы непобедимы, но из-за миграции на юг им приходится в одиночку сражаться за свою жизнь.

Код:

Общее
Полное имя : D:\Prajd.2014.XviD.HDTVRip.by.GeneralFilm\Serija.01.avi
Формат : AVI
Формат/Информация : Audio Video Interleave
Размер файла : 557 Мбайт
Продолжительность : 43 м.
Общий поток : 1770 Кбит/сек
Программа кодирования : VirtualDubMod 1.5.10.3 | www.virtualdub-fr.org || (build 2550/release)
Библиотека кодирования : VirtualDubMod build 2550/release

Видео
Идентификатор : 0
Формат : MPEG-4 Visual
Профиль формата : Advanced Simple@L5
Параметр BVOP формата : 1
Параметр QPel формата : Нет
Параметр GMC формата : Без точки перехода
Параметр матрицы формата : Выборочная
Идентификатор кодека : XVID
Идентификатор кодека/Подсказка : XviD
Продолжительность : 43 м.
Битрейт : 1568 Кбит/сек
Ширина : 720 пикселей
Высота : 400 пикселей
Соотношение сторон : 16:9
Частота кадров : 25,000 кадров/сек
Цветовое пространство : YUV
Субдискретизация насыщенности : 4:2:0
Битовая глубина : 8 бит
Тип развёртки : Прогрессивная
Метод сжатия : С потерями
Бит/(Пиксели*Кадры) : 0.218
Размер потока : 493 Мбайт (89%)
Библиотека кодирования : XviD 73

Аудио
Идентификатор : 1
Формат : AC-3
Формат/Информация : Audio Coding 3
Расширение режима : CM (complete main)
Параметр Endianness формата : Big
Идентификатор кодека : 2000
Продолжительность : 43 м.
Вид битрейта : Постоянный
Битрейт : 192 Кбит/сек
Каналы : 2 канала
Расположение каналов : Front: L R
Частота : 48,0 КГц
Метод сжатия : С потерями
Размер потока : 60,4 Мбайт (11%)
Выравнивание : Разделение по промежуткам
Продолжительность промежутка : 40 мс. (1,00 видеокадр)
Время предзагрузки промежутка : 500 мс.
picpicpicpicpicpic
Для увеличения картинки щелкните мышкой по превью

Этот торрент недоступен для скачивания без регистрации, однако доступен по публичной magnet-ссылке (источники с публичных трекеров). Перед использованием ссылки прочтите, пожалуйста Пользовательское соглашение, а также как можно дольше оставайтесь на раздаче! Для того, чтобы скачать сам торрент-файл (который видит больше источников), а также для того, чтобы поблагодарить релизера, вам необходимо зарегистрироваться. Если регистрироваться лень - вы можете также попробовать скачать релиз по нашим партнерским ссылкам ниже.

[underverse.su].t63548.torrent
Трекер: Зарегистрирован   [ 24.02.2016 19:06 ]  

Статус: проверено (by makkol at 24.02.2016 21:58)
Поблагодарили: пока никто не поблагодарил...
Тип торрента: публичный - доступные источники с открытых трекеров: 
Размер: 1,09 GB (занимает 0,25 DVDR, для записи нужно 1 болванка DVDR/RW)
 
 

Яндекс.Метрика powered by Sphinx


В Н И М А Н И Е
Сайт не распространяет и не хранит электронные версии произведений, а лишь бесплатно и без коммерческой выгоды (не требуя взамен платы,
SMS и т.д.) предоставляет доступ к создаваемому пользователями каталогу ссылок на торрент-файлы, которые содержат только списки хеш-сумм.
Убедительная просьба с жалобами обращаться напрямую к пользователю, разместившему торрент файл.

Вверх