Loading...
Error

В сердце моря / In the Heart of the Sea (Рон Ховард) [2015 г., триллер, драма, приключения, биография, история, HDRip] Dub (Line)

Статистика раздачи
Размер:  1,46 GB   |    Зарегистрирован:  9 месяцев   |    Скачан:  51 раз

Полного источника не было: 5 часов

Сидов:  0  |  0 KB/s  ]   Личеров:  0  |  0 KB/s  ]

* - сиды/пиры с внешних источников

   
 
Автор Сообщение

makkol Пол:Муж

23-Фев-2016 22:31

В сердце моря / In the Heart of the Sea
«О невероятных событиях, о легендарном Моби Дике»


Год выпуска: 2015
Жанр: триллер, драма, приключения, биография, история
Производство: США [Cott Productions, Enelmar Productions, Imagine Entertainment]
Режиссер: Рон Ховард
В ролях: Крис Хемсворт, Бен Уишоу, Киллиан Мёрфи, Том Холланд, Шарлотта Райли, Брендан Глисон, Фрэнк Диллэйн, Пол Андерсон, Бенджамин Уокер, Мишель Фэйрли
Сюжет фильма:
В 1819 году американский корабль «Эссекс» с командой из двух десятков человек на борту отправился из порта в штате Массачусетс на китобойный промысел. Осенью 1820-го успешная на протяжении полутора лет охота была прервана атакой гигантского кашалота на судно, в результате чего морякам пришлось пересесть в шлюпки. В течение трех с лишним месяцев они боролись за выживание посреди океана…

  • Мировая премьера: 3 декабря 2015
  • Российская премьера: 3 декабря 2015


Качество видео: HDRip

Продолжительность: 02:01:43
Формат: AVI
Видео: XviD, 720x400 (16:9), 23.976 fps, 1514 kbps
Аудио: русский, дублированный (чистый звук), AC3 2.0, 48 kHz, 192 kbps

Код:

Формат                                   : AVI
Формат/Информация                        : Audio Video Interleave
Размер файла                             : 1,36 Гбайт
Продолжительность                        : 2 ч. 1 м.
Общий поток                              : 1602 Кбит/сек
Программа кодирования                    : VirtualDubMod 1.5.10.3 | (build 2550/release)
Библиотека кодирования                   : Boilsoft AVI tool build 30012/release

Видео
Идентификатор                            : 0
Формат                                   : MPEG-4 Visual
Профиль формата                          : Advanced Simple@L5
Параметр BVOP формата                    : 2
Параметр QPel формата                    : Нет
Параметр GMC формата                     : Без точки перехода
Параметр матрицы формата                 : Default (MPEG)
Идентификатор кодека                     : XVID
Идентификатор кодека/Подсказка           : XviD
Продолжительность                        : 2 ч. 1 м.
Битрейт                                  : 1514 Кбит/сек
Ширина                                   : 720 пикселей
Высота                                   : 400 пикселей
Соотношение сторон                       : 16:9
Частота кадров                           : 23,976 (24000/1001) кадра/сек
Цветовое пространство                    : YUV
Субдискретизация насыщенности            : 4:2:0
Битовая глубина                          : 8 бит
Тип развёртки                            : Прогрессивная
Метод сжатия                             : С потерями
Бит/(Пиксели*Кадры)                      : 0.203
Размер потока                            : 1,19 Гбайт (87%)
Библиотека кодирования                   : XviD 1.2.1 (UTC 2008-12-04)

Аудио
Идентификатор                            : 1
Формат                                   : AC-3
Формат/Информация                        : Audio Coding 3
Расширение режима                        : CM (complete main)
Параметр Endianness формата              : Big
Идентификатор кодека                     : 2000
Продолжительность                        : 2 ч. 1 м.
Вид битрейта                             : Постоянный
Битрейт                                  : 192 Кбит/сек
Каналы                                   : 2 канала
Расположение каналов                     : Front: L R
Частота                                  : 48,0 КГц
Частота кадров                           : 31,250 кадров/сек (1536 spf)
Метод сжатия                             : С потерями
Задержка видео                           : 30 мс.
Размер потока                            : 167 Мбайт (12%)
Выравнивание                             : Разделение по промежуткам
Продолжительность промежутка             : 42  мс. (1,00 видеокадр)
Время предзагрузки промежутка            : 500  мс.
Релиз без рекламы!


picpicpicpicpic
Для увеличения картинки щелкните мышкой по превью

Этот торрент недоступен для скачивания без регистрации, однако доступен по публичной magnet-ссылке (источники с публичных трекеров). Перед использованием ссылки прочтите, пожалуйста Пользовательское соглашение, а также как можно дольше оставайтесь на раздаче! Для того, чтобы скачать сам торрент-файл (который видит больше источников), а также для того, чтобы поблагодарить релизера, вам необходимо зарегистрироваться. Если регистрироваться лень - вы можете также попробовать скачать релиз по нашим партнерским ссылкам ниже.

[underverse.su].t63523.torrent
Трекер: Зарегистрирован   [ 24.02.2016 09:43 ]  

Статус: T временная (by makkol at 25.02.2016 23:40)
Поблагодарили: 1 человек
Тип торрента: публичный - доступные источники с открытых трекеров: 
Размер: 1,46 GB (занимает 1/3 DVDR, для записи нужно 1 болванка DVDR/RW)
 
 
Похожие темы
Форум Тема Автор Торрент Отв. Посл. сооб.
Зарубежное кино [DVDRip, Low-Res HDRip, и т.д.] В сердце моря / In the Heart of the Sea (Рон Ховард / Ron Howard) [2015 г., биография, приключения, драма, BDRip-AVC] Dub + Original (Eng) + Sub (Rus, Ukr, Eng) 90ytr90
56 | 5

0 | 157

0

08.11.2016 09:07

Зарубежное кино [DVDRip, Low-Res HDRip, и т.д.] В сердце моря / In the Heart of the Sea (Рон Ховард / Ron Howard) [2015 г., биография, приключения, драма, BDRip] AVO (Гаврилов) 90ytr90
19 | 4

0 | 130

0

08.11.2016 08:56

Зарубежное кино [DVDRip, Low-Res HDRip, и т.д.] В сердце моря / In the Heart of the Sea (Рон Ховард / Ron Howard) [2015 г., биография, приключения, драма, HDRip] Dub + Sub (Rus) 90ytr90
257 | 6

0 | 140

3

08.11.2016 08:18

Зарубежное кино [DVDRip, Low-Res HDRip, и т.д.] В сердце моря / In the Heart of the Sea (Рон Ховард / Ron Howard) [2015 г., биография, приключения, драма, HDRip] Dub + Sub (Rus) 90ytr90
10 | 3

0 | 147

2

08.11.2016 08:13

Зарубежное кино [DVDRip, Low-Res HDRip, и т.д.] В сердце моря / In the Heart of the Sea (Рон Ховард / Ron Howard) [2015 г., биография, приключения, драма, HDRip] Dub + Sub (Rus) 90ytr90
928 | 22

0 | 151

2

08.11.2016 08:09

T Зарубежное кино [DVDRip, Low-Res HDRip, и т.д.] В сердце моря / In the Heart of the Sea (Рон Ховард) [2015 г., триллер, драма, приключения, биография, история, HDRip] Dub (Line) + Original makkol
7 | 0

1 | 663

11

24.02.2016 10:04

T Зарубежное кино [DVDRip, Low-Res HDRip, и т.д.] В сердце моря / In the Heart of the Sea (Рон Ховард / Ron Howard) [2015 г., биография, приключения, драма, BDRip-AVC] Dub (чистый звук) + Sub (Rus) 90ytr90
16 | 3

0 | 708

16

27.02.2016 19:43

T Зарубежное кино [DVDRip, Low-Res HDRip, и т.д.] В сердце моря / In the Heart of the Sea (Рон Ховард) [2015 г., триллер, драма, приключения, биография, история, HDRip] Dub makkol
1 | 0

0 | 441

7

02.03.2016 22:26

T Зарубежное кино [DVDRip, Low-Res HDRip, и т.д.] В сердце моря / In the Heart of the Sea (Рон Ховард) [2015 г., триллер, драма, приключения, биография, история, HDRip] Dub makkol
0 | 0

0 | 382

11

02.03.2016 22:32

T Зарубежное кино [DVDRip, Low-Res HDRip, и т.д.] В сердце моря / In the Heart of the Sea (Рон Ховард / Ron Howard) [2015 г., биография, приключения, драма, HDRip] Dub (iTunes) + hardsub (Rus) 90ytr90
22 | 0

0 | 579

21

03.03.2016 18:48



Последний раз редактировалось: makkol (25.02.2016 23:40), всего редактировалось 1 раз

makkol Пол:Муж

24-Фев-2016 09:45

24.02 в 12:45 торрент обновлён. Теперь без рекламы.

Яндекс.Метрика powered by Sphinx


В Н И М А Н И Е
Сайт не распространяет и не хранит электронные версии произведений, а лишь бесплатно и без коммерческой выгоды (не требуя взамен платы,
SMS и т.д.) предоставляет доступ к создаваемому пользователями каталогу ссылок на торрент-файлы, которые содержат только списки хеш-сумм.
Убедительная просьба с жалобами обращаться напрямую к пользователю, разместившему торрент файл.

Вверх