Loading...
Error

Воины дракона / Dragon Warriors / Dudes & Dragons (Маклейн Нельсон, Стивен Шимек) [2015 г., фэнтези, боевик, комедия, SatRip] MVO

Статистика раздачи
Размер:  1,45 GB   |    Зарегистрирован:  9 месяцев   |    Скачан:  18 раз

Полного источника не было: 15 дней

Сидов:  0  |  0 KB/s  ]   Личеров:  0  |  0 KB/s  ]

* - сиды/пиры с внешних источников

   
 
Автор Сообщение

makkol Пол:Муж

23-Фев-2016 15:53

Воины дракона / Dragon Warriors / Dudes & Dragons


Год выпуска: 2015
Жанр: фэнтези, боевик, комедия
Производство: США [Dragon Warrior, Escapology, Main Dog Productions]
Режиссер: Маклейн Нельсон, Стивен Шимек
В ролях: Джеймс Марстерс, Кэйтлин Даблдэй, Люк Перри, Адам Джонсон, Маклейн Нельсон, Клэр Нидерпрюэм, Джейк Ван Вагонер, Эрик Дентон, Шеннон Энгеманн, Лорин Кент
Сюжет фильма:
Злой волшебник, лорд Тенсли, добивается руки и сердца прекрасной принцессы, леди Энногард. Она отказывается, он похищает ее и натравливает дракона на земли королевства. Злодей клянется, что, пока принцесса не согласится, дракон будет уничтожать всех, чьи сердца открыты для любви. Узница посылает волшебную стрекозу, чтобы та нашла воина, способного сразить дракона и освободить землю от опасности. Тем временем молодой воин по имени Камилан мечтает жениться на своей возлюбленной, принцессе эльфов. Родители не дают ему благословения на брак, пока не женится его старший брат Рамикус, уже давно покинувший дом изгой. Камилан пускается на поиски брата, чтобы вместе с ним сразить дракона, освободив тем самым леди Энногард, красота которой не может не тронуть ожесточенное сердце Рамикуса. Вскоре герои вместе со своими верными оруженосцами отправляются в путешествие, в финале которого им предстоит положить конец правлению тирана Тенсли…

  • Мировая премьера: 10 октября 2015


Качество видео: SatRip

Продолжительность: 01:43:02
Формат: AVI
Видео: XviD, 720x400 (16:9), 25.000 fps, 1816 kbps
Аудио: русский, профессиональный многоголосый закадровый (ТВ3), AC3 2.0, 48 kHz, 192 kbps

Код:

Формат : AVI
Формат/Информация : Audio Video Interleave
Размер файла : 1,45 Гбайт
Продолжительность : 1 ч. 43 м.
Общий поток : 2018 Кбит/сек
Название фильма : Воины дракона / Dragon Warriors / Dudes & Dragons (2015)
Программа кодирования : VirtualDubMod 1.5.10.2 (build 2540/release)
Библиотека кодирования : VirtualDubMod build 2540/release

Видео
Идентификатор : 0
Формат : MPEG-4 Visual
Профиль формата : Advanced Simple@L5
Параметр BVOP формата : 1
Параметр QPel формата : Нет
Параметр GMC формата : Без точки перехода
Параметр матрицы формата : Выборочная
Идентификатор кодека : XVID
Идентификатор кодека/Подсказка : XviD
Продолжительность : 1 ч. 43 м.
Битрейт : 1816 Кбит/сек
Ширина : 720 пикселей
Высота : 400 пикселей
Соотношение сторон : 16:9
Частота кадров : 25,000 кадров/сек
Цветовое пространство : YUV
Субдискретизация насыщенности : 4:2:0
Битовая глубина : 8 бит
Тип развёртки : Прогрессивная
Метод сжатия : С потерями
Бит/(Пиксели*Кадры) : 0.252
Размер потока : 1,31 Гбайт (90%)
Библиотека кодирования : XviD 65

Аудио
Идентификатор : 1
Формат : AC-3
Формат/Информация : Audio Coding 3
Расширение режима : CM (complete main)
Параметр Endianness формата : Big
Идентификатор кодека : 2000
Продолжительность : 1 ч. 43 м.
Вид битрейта : Постоянный
Битрейт : 192 Кбит/сек
Каналы : 2 канала
Расположение каналов : Front: L R
Частота : 48,0 КГц
Частота кадров : 31,250 кадров/сек (1536 spf)
Метод сжатия : С потерями
Размер потока : 141 Мбайт (10%)
Выравнивание : Разделение по промежуткам
Продолжительность промежутка : 40 мс. (1,00 видеокадр)
Время предзагрузки промежутка : 500 мс.
Заголовок : Профессиональный (многоголосый закадровый)
Релиз от miha2154

picpicpicpicpic
Для увеличения картинки щелкните мышкой по превью

Этот торрент недоступен для скачивания без регистрации, однако доступен по публичной magnet-ссылке (источники с публичных трекеров). Перед использованием ссылки прочтите, пожалуйста Пользовательское соглашение, а также как можно дольше оставайтесь на раздаче! Для того, чтобы скачать сам торрент-файл (который видит больше источников), а также для того, чтобы поблагодарить релизера, вам необходимо зарегистрироваться. Если регистрироваться лень - вы можете также попробовать скачать релиз по нашим партнерским ссылкам ниже.

[underverse.su].t63512.torrent
Трекер: Зарегистрирован   [ 23.02.2016 15:53 ]  

Статус: проверено (by makkol at 25.02.2016 23:37)
Поблагодарили: 1 человек
Тип торрента: публичный - доступные источники с открытых трекеров: 
Размер: 1,45 GB (занимает 1/3 DVDR, для записи нужно 1 болванка DVDR/RW)
 
 

Яндекс.Метрика powered by Sphinx


В Н И М А Н И Е
Сайт не распространяет и не хранит электронные версии произведений, а лишь бесплатно и без коммерческой выгоды (не требуя взамен платы,
SMS и т.д.) предоставляет доступ к создаваемому пользователями каталогу ссылок на торрент-файлы, которые содержат только списки хеш-сумм.
Убедительная просьба с жалобами обращаться напрямую к пользователю, разместившему торрент файл.

Вверх