Loading...
Error

Все могут короли (1-12 серии из 12) (Ольга Музалева) [2015 г., комедия, фантастика, WEB-DLRip] (Полная версия)

Статистика раздачи
Размер:  6,43 GB   |    Зарегистрирован:  9 месяцев   |    Скачан:  11 раз

Полного источника не было: 14 дней

Сидов:  0  |  0 KB/s  ]   Личеров:  0  |  0 KB/s  ]

* - сиды/пиры с внешних источников

   
 
Автор Сообщение

makkol Пол:Муж

23-Фев-2016 13:41

Все могут короли


Год выпуска: 2015
Жанр: комедия, фантастика
Производство: Россия [Марс Медиа Энтертейнмент]
Режиссер: Ольга Музалева
В ролях: Максим Галкин, Александр Балуев, Мария Сёмкина, Полина Филоненко, Александр Сирин, Татьяна Рудина, Александр Пацевич, Светлана Косолапова, Любовь Германова, Дмитрий Мухамадеев, Алексей Весёлкин мл., Максим Севриновский, Николай Сахаров, Сергей Брюн, Дмитрий Соломыкин, Андрей Заводюк, Александр Ткачёв, Александр Булатов
Сюжет фильма:
Что случится, если поменять местами средневекового герцога Майкла Каннингема и простого московского менеджера Мишу Николаева, похожих друг на друга как две капли воды? Очень многое!
Этим двоим предстоит преодолеть сложнейшие обстоятельства, чтобы вписаться в совершенно новую реальность, ведь Миша раньше никогда не правил герцогством, а Майкл, наследник древнего английского рода, вынужден включаться в жизнь мегаполиса, осваивать гаджеты и искать общий язык с современными девушками.
На «пути домой» Майкла и Мишу ожидает множество головокружительных приключений, дружба, предательство, интриги и, конечно, настоящая любовь. Возможно, благодаря им изменится вся мировая история, но непременно к лучшему!

Качество видео: WEB-DLRip

Продолжительность: 12 х ~ 00:42:00
Формат: AVI
Видео: XviD, 720x400 (16:9), 25.000 fps, ~1650 kbps
Аудио: русский, оригинал, AC3 2.0, 48 kHz, 192 kbps

Код:

Format : AVI
Format/Info : Audio Video Interleave
File size : 550 MiB
Duration : 41mn 31s
Overall bit rate : 1 852 Kbps
Writing application : VirtualDubMod 1.5.10.3 | www.virtualdub-fr.org || (build 2550/release)
Writing library : VirtualDubMod build 2550/release

Video
ID : 0
Format : MPEG-4 Visual
Format profile : Advanced Simple@L5
Format settings, BVOP : 1
Format settings, QPel : No
Format settings, GMC : No warppoints
Format settings, Matrix : Custom
Codec ID : XVID
Codec ID/Hint : XviD
Duration : 41mn 31s
Bit rate : 1 650 Kbps
Width : 720 pixels
Height : 400 pixels
Display aspect ratio : 16:9
Frame rate : 25.000 fps
Color space : YUV
Chroma subsampling : 4:2:0
Bit depth : 8 bits
Scan type : Progressive
Compression mode : Lossy
Bits/(Pixel*Frame) : 0.229
Stream size : 490 MiB (89%)
Writing library : XviD 73

Audio
ID : 1
Format : AC-3
Format/Info : Audio Coding 3
Mode extension : CM (complete main)
Format settings, Endianness : Big
Codec ID : 2000
Duration : 41mn 31s
Bit rate mode : Constant
Bit rate : 192 Kbps
Channel(s) : 2 channels
Channel positions : Front: L R
Sampling rate : 48.0 KHz
Compression mode : Lossy
Stream size : 57.0 MiB (10%)
Alignment : Split accross interleaves
Interleave, duration : 40 ms (1.00 video frame)
Interleave, preload duratio : 500 ms
Релиз от:
Полная версия!


picpicpicpicpic
Для увеличения картинки щелкните мышкой по превью

Этот торрент недоступен для скачивания без регистрации, однако доступен по публичной magnet-ссылке (источники с публичных трекеров). Перед использованием ссылки прочтите, пожалуйста Пользовательское соглашение, а также как можно дольше оставайтесь на раздаче! Для того, чтобы скачать сам торрент-файл (который видит больше источников), а также для того, чтобы поблагодарить релизера, вам необходимо зарегистрироваться. Если регистрироваться лень - вы можете также попробовать скачать релиз по нашим партнерским ссылкам ниже.

[underverse.su].t63504.torrent
Трекер: Зарегистрирован   [ 23.02.2016 13:41 ]  

Статус: проверено (by makkol at 25.02.2016 23:35)
Поблагодарили: пока никто не поблагодарил...
Тип торрента: публичный - доступные источники с открытых трекеров: 
Размер: 6,43 GB (занимает 1,47 DVDR, для записи нужно 2 болванки DVDR/RW)
 
 
Похожие темы
Форум Тема Автор Торрент Отв. Посл. сооб.
* Архив Всё могут короли (Александр Черняев) [2008 г., комедия, мелодрама, DVDRip] БогDan

3 | 933

29.08.2010 23:52

xUSSR сериалы [BD / Remux / BDRip / WEB-DL / HDTV 1080/720р] Все могут короли (1-12 серии из 12) (Ольга Музалева) [2015 г., комедия, фантастика, WEB-DL 720p] (Полная версия) makkol
3 | 0

0 | 595

6

23.02.2016 13:54


Яндекс.Метрика powered by Sphinx


В Н И М А Н И Е
Сайт не распространяет и не хранит электронные версии произведений, а лишь бесплатно и без коммерческой выгоды (не требуя взамен платы,
SMS и т.д.) предоставляет доступ к создаваемому пользователями каталогу ссылок на торрент-файлы, которые содержат только списки хеш-сумм.
Убедительная просьба с жалобами обращаться напрямую к пользователю, разместившему торрент файл.

Вверх