Loading...
Error

Бумажные птицы / Pajaros de papel (Эмилио Арагон) [2010 г., драма, комедия, DVDRip] VO + Original + Subs

Статистика раздачи
Размер:  1,69 GB   |    Зарегистрирован:  9 месяцев   |    Скачан:  0 раз

Полного источника не было: 6 месяцев

Сидов:  0  |  0 KB/s  ]   Личеров:  0  |  0 KB/s  ]

* - сиды/пиры с внешних источников

   
 
Автор Сообщение

makkol Пол:Муж

23-Фев-2016 12:33

Бумажные птицы / Pájaros de papel


Год выпуска: 2010
Жанр: драма, комедия
Производство: Испания [Antena 3 Films, Canal+ España, Generalitat de Catalunya - Institut Català de les Indústries Culturals (ICIC)]
Режиссер: Эмилио Арагон
В ролях: Иманол Ариас, Льюис Омар, Рохер Принсеп, Кармен Мачи, Фернандо Кайо, Диего Мартин, Орьоль Вила, Луис Варела, Хосе Анхель Эхидо
Сюжет фильма:
История труппы бродячих артистов, во главе которой стоит странноватый комик и музыкант Хорхе Дель Пино. Он, а также чревовещатель Энрике, 9-летний сирота Мигель, куплетистка Росио, юная танцовщица Мерседитас и другие их коллеги в голодное послевоенное время вынуждены выживать, давая представления в испанском захолустье, но несмотря на невзгоды они не теряют присутствия духа и чувства юмора...

  • Мировая премьера: 12 марта 2010


Качество видео: DVDRip

Продолжительность: 01:57:36
Формат: AVI
Видео: XviD, 720x304 (2.35:1), 25.000 fps, 1338 kbps
Аудио #1: русский, любительский одноголосый закадровый (Вячеслав Прошин), AC3 5.1, 48 kHz, 384 kbps
Аудио #2: испанский, оригинал, AC3 5.1, 48 kHz, 320 kbps
Субтитры: русские (Септимо Алонсо) внешние (полные и форсированные - на песни), SRT

Код:

Общее
Полное имя                               : Pajaros.de.papel.2010.DVDRip.avi
Формат                                   : AVI
Формат/Информация                        : Audio Video Interleave
Размер файла                             : 1,69 Гбайт
Продолжительность                        : 1 ч. 57 м.
Общий поток                              : 2057 Кбит/сек
Программа кодирования                    : VirtualDubMod 1.5.10.2 (build 2542/release)
Библиотека кодирования                   : VirtualDubMod build 2542/release

Видео
Идентификатор                            : 0
Формат                                   : MPEG-4 Visual
Профиль формата                          : Advanced Simple@L5
Параметр BVOP формата                    : 1
Параметр QPel формата                    : Нет
Параметр GMC формата                     : Без точки перехода
Параметр матрицы формата                 : Выборочная
Идентификатор кодека                     : XVID
Идентификатор кодека/Подсказка           : XviD
Продолжительность                        : 1 ч. 57 м.
Битрейт                                  : 1338 Кбит/сек
Ширина                                   : 720 пикселей
Высота                                   : 304 пикселя
Соотношение сторон                       : 2,35:1
Частота кадров                           : 25,000 кадров/сек
Цветовое пространство                    : YUV
Субдискретизация насыщенности            : 4:2:0
Битовая глубина                          : 8 бит
Тип развёртки                            : Прогрессивная
Метод сжатия                             : С потерями
Бит/(Пиксели*Кадры)                      : 0.245
Размер потока                            : 1,10 Гбайт (65%)
Библиотека кодирования                   : XviD 64

Аудио #1
Идентификатор                            : 1
Формат                                   : AC-3
Формат/Информация                        : Audio Coding 3
Расширение режима                        : CM (complete main)
Параметр Endianness формата              : Big
Идентификатор кодека                     : 2000
Продолжительность                        : 1 ч. 57 м.
Вид битрейта                             : Постоянный
Битрейт                                  : 384 Кбит/сек
Каналы                                   : 6 каналов
Расположение каналов                     : Front: L C R, Side: L R, LFE
Частота                                  : 48,0 КГц
Метод сжатия                             : С потерями
Размер потока                            : 323 Мбайт (19%)
Выравнивание                             : Разделение по промежуткам
Продолжительность промежутка             : 40  мс. (1,00 видеокадр)
Время предзагрузки промежутка            : 500  мс.
Язык                                     : Espanol

Аудио #2
Идентификатор                            : 2
Формат                                   : AC-3
Формат/Информация                        : Audio Coding 3
Расширение режима                        : CM (complete main)
Параметр Endianness формата              : Big
Идентификатор кодека                     : 2000
Продолжительность                        : 1 ч. 57 м.
Вид битрейта                             : Постоянный
Битрейт                                  : 320 Кбит/сек
Каналы                                   : 6 каналов
Расположение каналов                     : Front: L C R, Side: L R, LFE
Частота                                  : 48,0 КГц
Метод сжатия                             : С потерями
Размер потока                            : 269 Мбайт (16%)
Выравнивание                             : Разделение по промежуткам
Продолжительность промежутка             : 40  мс. (1,00 видеокадр)
Время предзагрузки промежутка            : 500  мс.
Релиз:

picpicpicpicpic
Для увеличения картинки щелкните мышкой по превью

Этот торрент недоступен для скачивания без регистрации, однако доступен по публичной magnet-ссылке (источники с публичных трекеров). Перед использованием ссылки прочтите, пожалуйста Пользовательское соглашение, а также как можно дольше оставайтесь на раздаче! Для того, чтобы скачать сам торрент-файл (который видит больше источников), а также для того, чтобы поблагодарить релизера, вам необходимо зарегистрироваться. Если регистрироваться лень - вы можете также попробовать скачать релиз по нашим партнерским ссылкам ниже.

[underverse.su].t63497.torrent
Трекер: Зарегистрирован   [ 23.02.2016 12:33 ]  

Статус: проверено (by makkol at 25.02.2016 23:34)
Поблагодарили: пока никто не поблагодарил...
Тип торрента: публичный - доступные источники с открытых трекеров: 
Размер: 1,69 GB (занимает 0,39 DVDR, для записи нужно 1 болванка DVDR/RW)
 
 

Яндекс.Метрика powered by Sphinx


В Н И М А Н И Е
Сайт не распространяет и не хранит электронные версии произведений, а лишь бесплатно и без коммерческой выгоды (не требуя взамен платы,
SMS и т.д.) предоставляет доступ к создаваемому пользователями каталогу ссылок на торрент-файлы, которые содержат только списки хеш-сумм.
Убедительная просьба с жалобами обращаться напрямую к пользователю, разместившему торрент файл.

Вверх