Loading...
Error

Мумии пустынь Перу / The Desert Mummies Of Peru [2000 г., документальный, археология, научно-познавательный, SatRip] VO + Original

Статистика раздачи
Размер:  627 MB   |    Зарегистрирован:  9 месяцев   |    Скачан:  1 раз

Полного источника не было: 3 месяца 30 дней

Сидов:  0  |  0 KB/s  ]   Личеров:  0  |  0 KB/s  ]

* - сиды/пиры с внешних источников

   
 
Автор Сообщение

ARI71 Пол:Муж

23-Фев-2016 07:55

Мумии пустынь Перу / The Desert Mummies Of Peru


Год выпуска: 2000
Жанр: документальный, археология, научно-познавательный
Страна: США
Режиссер: Discovery World
Сюжет фильма:
Раскопки первого обнаруженного неразграбленного захоронения Чирибайя, цивилизации Перу в 950-1350 годах нашей эры.
Качество видео: SatRip

Продолжительность: 00:46:56
Формат: AVI
Видео: XviD, 704x472, ~1659 kbps
Аудио #1: русский, одноголосый [профессиональный], MP3 1.0, ~96.00 kbps
Аудио #2: английский, оригинал, MP3 1.0, ~96.00 kbps

Код:

Общее
Полное имя : D:\123-l-the_desert_mummies_of_peru.avi
Формат : AVI
Формат/Информация : Audio Video Interleave
Размер файла : 627 Мбайт
Продолжительность : 46 м.
Общий поток : 1867 Кбит/сек
Программа кодирования : VirtualDubMod 1.5.10.2 (build 2542/release)
Библиотека кодирования : VirtualDubMod build 2542/release

Видео
Идентификатор : 0
Формат : MPEG-4 Visual
Профиль формата : Advanced Simple@L5
Параметр BVOP формата : 1
Параметр QPel формата : Нет
Параметр GMC формата : Без точки перехода
Параметр матрицы формата : Выборочная
Идентификатор кодека : XVID
Идентификатор кодека/Подсказка : XviD
Продолжительность : 46 м.
Битрейт : 1660 Кбит/сек
Ширина : 704 пикселя
Высота : 472 пикселя
Соотношение сторон : 0,944
Соотношение сторон в оригинале : 3:2
Частота кадров : 25,000 кадров/сек
Цветовое пространство : YUV
Субдискретизация насыщенности : 4:2:0
Битовая глубина : 8 бит
Тип развёртки : Прогрессивная
Метод сжатия : С потерями
Бит/(Пиксели*Кадры) : 0.200
Размер потока : 557 Мбайт (89%)
Библиотека кодирования : XviD 1.3.0.dev55

Аудио #1
Идентификатор : 1
Формат : MPEG Audio
Версия формата : Version 1
Профиль формата : Layer 2
Идентификатор кодека : 50
Продолжительность : 46 м.
Вид битрейта : Постоянный
Битрейт : 96,0 Кбит/сек
Каналы : 1 канал
Частота : 48,0 КГц
Метод сжатия : С потерями
Размер потока : 32,2 Мбайт (5%)
Выравнивание : Разделение по промежуткам
Продолжительность промежутка : 40 мс. (1,00 видеокадр)
Время предзагрузки промежутка : 500 мс.

Аудио #2
Идентификатор : 2
Формат : MPEG Audio
Версия формата : Version 1
Профиль формата : Layer 2
Идентификатор кодека : 50
Продолжительность : 46 м.
Вид битрейта : Постоянный
Битрейт : 96,0 Кбит/сек
Каналы : 1 канал
Частота : 48,0 КГц
Метод сжатия : С потерями
Размер потока : 32,2 Мбайт (5%)
Выравнивание : Разделение по промежуткам
Продолжительность промежутка : 40 мс. (1,00 видеокадр)
Время предзагрузки промежутка : 500 мс.
picpicpicpic
Для увеличения картинки щелкните мышкой по превью

Этот торрент недоступен для скачивания без регистрации, однако доступен по публичной magnet-ссылке (источники с публичных трекеров). Перед использованием ссылки прочтите, пожалуйста Пользовательское соглашение, а также как можно дольше оставайтесь на раздаче! Для того, чтобы скачать сам торрент-файл (который видит больше источников), а также для того, чтобы поблагодарить релизера, вам необходимо зарегистрироваться. Если регистрироваться лень - вы можете также попробовать скачать релиз по нашим партнерским ссылкам ниже.

[underverse.su].t63486.torrent
Трекер: Зарегистрирован   [ 23.02.2016 07:55 ]  

Статус: проверено (by 90ytr90 at 23.02.2016 12:17)
Поблагодарили: пока никто не поблагодарил...
Тип торрента: публичный - доступные источники с открытых трекеров: 
Размер: 627 MB (занимает 0,14 DVDR, для записи нужно 1 болванка DVDR/RW)
 
 

ARI71 Пол:Муж

23-Фев-2016 08:31

Оставатесь пож-та как можно дольше на раздаче! Тем самым вы даёте возможность релизёру создавать новые релизы!


Яндекс.Метрика powered by Sphinx


В Н И М А Н И Е
Сайт не распространяет и не хранит электронные версии произведений, а лишь бесплатно и без коммерческой выгоды (не требуя взамен платы,
SMS и т.д.) предоставляет доступ к создаваемому пользователями каталогу ссылок на торрент-файлы, которые содержат только списки хеш-сумм.
Убедительная просьба с жалобами обращаться напрямую к пользователю, разместившему торрент файл.

Вверх