Loading...
Error

Мыс ужаса / Cape Of Terror [2000 г., документальный, история, научно-познавательный, SatRip] VO + Original

Статистика раздачи
Размер:  715 MB   |    Зарегистрирован:  9 месяцев   |    Скачан:  3 раза

Полного источника не было: 3 месяца 29 дней

Сидов:  0  |  0 KB/s  ]   Личеров:  0  |  0 KB/s  ]

* - сиды/пиры с внешних источников

   
 
Автор Сообщение

ARI71 Пол:Муж

23-Фев-2016 07:23

Мыс ужаса / Cape Of Terror


Год выпуска: 2000
Жанр: документальный, история, научно-познавательный
Страна: США
Режиссер: Discovery World
Сюжет фильма:
Отправьтесь в путешествие на паруснике Дагмар Ааен к мысу Горн, всегда вселявшему ужас в сердца моряков. Именно там встретили свою гибель тысячи мореплавателей.
Качество видео: SatRip

Продолжительность: 00:47:00
Формат: AVI
Видео: XviD, 696x552, ~1920 kbps
Аудио #1: русский, одноголосый [профессиональный], MP3 1.0, ~96.00 kbps
Аудио #2: английский, оригинал, MP3 1.0, ~96.00 kbps

Код:

Общее
Полное имя : D:\122-l-cape_terror.avi
Формат : AVI
Формат/Информация : Audio Video Interleave
Размер файла : 715 Мбайт
Продолжительность : 47 м.
Общий поток : 2128 Кбит/сек
Программа кодирования : VirtualDubMod 1.5.10.2 (build 2542/release)
Библиотека кодирования : VirtualDubMod build 2542/release

Видео
Идентификатор : 0
Формат : MPEG-4 Visual
Профиль формата : Advanced Simple@L5
Параметр BVOP формата : 1
Параметр QPel формата : Нет
Параметр GMC формата : Без точки перехода
Параметр матрицы формата : Выборочная
Идентификатор кодека : XVID
Идентификатор кодека/Подсказка : XviD
Продолжительность : 47 м.
Битрейт : 1921 Кбит/сек
Ширина : 696 пикселей
Высота : 552 пикселя
Соотношение сторон : 0,944
Соотношение сторон в оригинале : 5:4
Частота кадров : 25,000 кадров/сек
Цветовое пространство : YUV
Субдискретизация насыщенности : 4:2:0
Битовая глубина : 8 бит
Тип развёртки : Прогрессивная
Метод сжатия : С потерями
Бит/(Пиксели*Кадры) : 0.200
Размер потока : 646 Мбайт (90%)
Библиотека кодирования : XviD 1.3.0.dev55

Аудио #1
Идентификатор : 1
Формат : MPEG Audio
Версия формата : Version 1
Профиль формата : Layer 2
Идентификатор кодека : 50
Продолжительность : 47 м.
Вид битрейта : Постоянный
Битрейт : 96,0 Кбит/сек
Каналы : 1 канал
Частота : 48,0 КГц
Метод сжатия : С потерями
Размер потока : 32,3 Мбайт (5%)
Выравнивание : Разделение по промежуткам
Продолжительность промежутка : 40 мс. (1,00 видеокадр)
Время предзагрузки промежутка : 500 мс.

Аудио #2
Идентификатор : 2
Формат : MPEG Audio
Версия формата : Version 1
Профиль формата : Layer 2
Идентификатор кодека : 50
Продолжительность : 47 м.
Вид битрейта : Постоянный
Битрейт : 96,0 Кбит/сек
Каналы : 1 канал
Частота : 48,0 КГц
Метод сжатия : С потерями
Размер потока : 32,3 Мбайт (5%)
Выравнивание : Разделение по промежуткам
Продолжительность промежутка : 40 мс. (1,00 видеокадр)
Время предзагрузки промежутка : 500 мс.
picpicpicpic
Для увеличения картинки щелкните мышкой по превью

Этот торрент недоступен для скачивания без регистрации, однако доступен по публичной magnet-ссылке (источники с публичных трекеров). Перед использованием ссылки прочтите, пожалуйста Пользовательское соглашение, а также как можно дольше оставайтесь на раздаче! Для того, чтобы скачать сам торрент-файл (который видит больше источников), а также для того, чтобы поблагодарить релизера, вам необходимо зарегистрироваться. Если регистрироваться лень - вы можете также попробовать скачать релиз по нашим партнерским ссылкам ниже.

[underverse.su].t63483.torrent
Трекер: Зарегистрирован   [ 23.02.2016 07:23 ]  

Статус: проверено (by 90ytr90 at 23.02.2016 12:13)
Поблагодарили: пока никто не поблагодарил...
Тип торрента: публичный - доступные источники с открытых трекеров: 
Размер: 715 MB (занимает 0,16 DVDR, для записи нужно 1 болванка DVDR/RW)
 
 


Последний раз редактировалось: ARI71 (23.02.2016 07:34), всего редактировалось 1 раз

ARI71 Пол:Муж

23-Фев-2016 08:31

Оставатесь пож-та как можно дольше на раздаче! Тем самым вы даёте возможность релизёру создавать новые релизы! Ну и конечно, релиз создан для любителей мумий! :Yahoo!:


Яндекс.Метрика powered by Sphinx


В Н И М А Н И Е
Сайт не распространяет и не хранит электронные версии произведений, а лишь бесплатно и без коммерческой выгоды (не требуя взамен платы,
SMS и т.д.) предоставляет доступ к создаваемому пользователями каталогу ссылок на торрент-файлы, которые содержат только списки хеш-сумм.
Убедительная просьба с жалобами обращаться напрямую к пользователю, разместившему торрент файл.

Вверх