Loading...
Error

Француз / Un Francais (Дьястем) [2015 г., драма, HDRip] MVO

Статистика раздачи
Размер:  1,45 GB   |    Зарегистрирован:  9 месяцев   |    Скачан:  19 раз

Полного источника не было: 3 часа

Сидов:  0  |  0 KB/s  ]   Личеров:  0  |  0 KB/s  ]

* - сиды/пиры с внешних источников

   
 
Автор Сообщение

makkol Пол:Муж

22-Фев-2016 11:18

Француз / Un Français


Год выпуска: 2015
Жанр: драма
Производство: Франция [Fin Aot Productions, Mars Films, France 3 Cinma]
Режиссер: Дьястем
В ролях: Элбан Ленуар, Поль Ами, Джинн Роза, Патрик Пино, Рено Леба, Бландин Пелиссье, Алекс Мартин
Сюжет фильма:
Марко — настоящий скинхед. Вместе со своими приятелями, Брагетом, Гран-Ги и Марвеном, он дубасит арабов и расклеивает плакаты ультраправых. Это продолжается до тех пор, пока он не начинает чувствовать, что вся эта ненависть улетучилась. Но как избавиться от жестокости, злости и глупости, которая в нас живет? Это пример пути человека, который был подонком, но захотел исправиться.

  • Мировая премьера: 10 июня 2015


Качество видео: HDRip

Продолжительность: 01:37:11
Формат: AVI
Видео: XviD, 720x304 (2.35:1), 24.000 fps, 1680 kbps
Аудио: русский, любительский многоголосый закадровый, AC3 5.1, 48 kHz, 448 kbps

Код:

Общее
Формат : AVI
Формат/Информация : Audio Video Interleave
Размер файла : 1,45 Гбайт
Продолжительность : 1 ч. 37 м.
Общий поток : 2138 Кбит/сек
Программа кодирования : VirtualDubMod 1.5.10.3 | www.virtualdub-fr.org || (build 2550/release)
Библиотека кодирования : VirtualDubMod build 2550/release

Видео
Идентификатор : 0
Формат : MPEG-4 Visual
Профиль формата : Advanced Simple@L5
Параметр BVOP формата : 1
Параметр QPel формата : Нет
Параметр GMC формата : Без точки перехода
Параметр матрицы формата : Выборочная
Идентификатор кодека : XVID
Идентификатор кодека/Подсказка : XviD
Продолжительность : 1 ч. 37 м.
Битрейт : 1680 Кбит/сек
Ширина : 720 пикселей
Высота : 304 пикселя
Соотношение сторон : 2,35:1
Частота кадров : 24,000 кадра/сек
Цветовое пространство : YUV
Субдискретизация насыщенности : 4:2:0
Битовая глубина : 8 бит
Тип развёртки : Прогрессивная
Метод сжатия : С потерями
Бит/(Пиксели*Кадры) : 0.320
Размер потока : 1,14 Гбайт (79%)
Библиотека кодирования : XviD 73

Аудио
Идентификатор : 1
Формат : AC-3
Формат/Информация : Audio Coding 3
Расширение режима : CM (complete main)
Параметр Endianness формата : Big
Идентификатор кодека : 2000
Продолжительность : 1 ч. 37 м.
Вид битрейта : Постоянный
Битрейт : 448 Кбит/сек
Каналы : 6 каналов
Расположение каналов : Front: L C R, Side: L R, LFE
Частота : 48,0 КГц
Битовая глубина : 16 бит
Метод сжатия : С потерями
Размер потока : 311 Мбайт (21%)
Выравнивание : Разделение по промежуткам
Продолжительность промежутка : 42 мс. (1,00 видеокадр)
Время предзагрузки промежутка : 500 мс.
Студия "Paradox & Omskbird records"
Перевод: Екатерина Кузнецова
Озвучивание: Павел Ярощик, Константин Погодаев, Андрей Астров, Ольга Федорова
picpicpicpicpic
Для увеличения картинки щелкните мышкой по превью

Этот торрент недоступен для скачивания без регистрации, однако доступен по публичной magnet-ссылке (источники с публичных трекеров). Перед использованием ссылки прочтите, пожалуйста Пользовательское соглашение, а также как можно дольше оставайтесь на раздаче! Для того, чтобы скачать сам торрент-файл (который видит больше источников), а также для того, чтобы поблагодарить релизера, вам необходимо зарегистрироваться. Если регистрироваться лень - вы можете также попробовать скачать релиз по нашим партнерским ссылкам ниже.

[underverse.su].t63447.torrent
Трекер: Зарегистрирован   [ 22.02.2016 11:18 ]  

Статус: проверено (by makkol at 22.02.2016 23:08)
Поблагодарили: пока никто не поблагодарил...
Тип торрента: публичный - доступные источники с открытых трекеров: 
Размер: 1,45 GB (занимает 1/3 DVDR, для записи нужно 1 болванка DVDR/RW)
 
 
Похожие темы
Форум Тема Автор Торрент Отв. Посл. сооб.
Зарубежное кино [HDDVDRip / BDRip / WEB-DL / HDTV 1080/720р] Француз / Un Francais (Дьястем) [2015 г., драма, BDRip 720p] MVO + Original makkol
8 | 0

0 | 316

5

22.02.2016 11:26

Зарубежное кино [HDDVDRip / BDRip / WEB-DL / HDTV 1080/720р] Француз / Un Francais (Дьястем) [2015 г., драма, BDRip 1080p] MVO + Original makkol
0 | 0

0 | 284

5

22.02.2016 11:36


Яндекс.Метрика powered by Sphinx


В Н И М А Н И Е
Сайт не распространяет и не хранит электронные версии произведений, а лишь бесплатно и без коммерческой выгоды (не требуя взамен платы,
SMS и т.д.) предоставляет доступ к создаваемому пользователями каталогу ссылок на торрент-файлы, которые содержат только списки хеш-сумм.
Убедительная просьба с жалобами обращаться напрямую к пользователю, разместившему торрент файл.

Вверх