Loading...
Error

Тайны Северного моря / Die Nordsee - Unser Meer [2013 г., документальный, флора, фауна, SatRip] VO

Статистика раздачи
Размер:  1,45 GB   |    Зарегистрирован:  9 месяцев   |    Скачан:  5 раз

Полного источника не было: 6 дней

Сидов:  0  |  0 KB/s  ]   Личеров:  0  |  0 KB/s  ]

* - сиды/пиры с внешних источников

   
 
Автор Сообщение

ARI71 Пол:Муж

21-Фев-2016 18:20

Тайны Северного моря / Die Nordsee - Unser Meer


Год выпуска: 2013
Жанр: документальный, флора, фауна
Страна: Германия, NDR Naturfilm, Studio Hamburg Doclights Produktion, Polyband See more
Режиссер: Томас Бехренд, Флориан Гранер
Сюжет фильма:
Северное море – суровые условия для жизни. Тем не менее, несмотря на постоянное движение здесь западных ветров с туманами, дождями, на берегах Северного моря водится большое количество пернатых, а в море, где вздымаются от ветров многометровые волны, насчитывается три сотни видов растений и полторы тысячи видов животных. Самые грозные из них – 7-метровые китовые акулы, а также гренландские полярные акулы, которых мало где можно встретить. Смотрите фильм, авторы которого представляют флору и фауну Северного моря во всем многообразии.


Качество видео: SatRip

Продолжительность: 01:29:54
Формат: AVI
Видео: XviD, 720x400, ~2113 kbps
Аудио: русский, одноголосый закадровый [профессиональный], AC3 2.0, ~192.00 kbps
"SDI Media Russia" Юрий Большаков

Код:

Общее
Полное имя : D:\Tajny.severnogo.morja.2013.SATRip.[Один 777].avi
Формат : AVI
Формат/Информация : Audio Video Interleave
Размер файла : 1,45 Гбайт
Продолжительность : 1 ч. 29 м.
Общий поток : 2315 Кбит/сек
Программа кодирования : VirtualDubMod 1.5.10.3 | www.virtualdub-fr.org || (build 2550/release)
Библиотека кодирования : VirtualDubMod build 2550/release

Видео
Идентификатор : 0
Формат : MPEG-4 Visual
Профиль формата : Advanced Simple@L5
Параметр BVOP формата : 1
Параметр QPel формата : Нет
Параметр GMC формата : Без точки перехода
Параметр матрицы формата : Default (H.263)
Идентификатор кодека : XVID
Идентификатор кодека/Подсказка : XviD
Продолжительность : 1 ч. 29 м.
Битрейт : 2114 Кбит/сек
Ширина : 720 пикселей
Высота : 400 пикселей
Соотношение сторон : 16:9
Частота кадров : 25,000 кадров/сек
Цветовое пространство : YUV
Субдискретизация насыщенности : 4:2:0
Битовая глубина : 8 бит
Тип развёртки : Прогрессивная
Метод сжатия : С потерями
Бит/(Пиксели*Кадры) : 0.294
Размер потока : 1,33 Гбайт (91%)
Библиотека кодирования : XviD 73

Аудио
Идентификатор : 1
Формат : AC-3
Формат/Информация : Audio Coding 3
Расширение режима : CM (complete main)
Параметр Endianness формата : Big
Идентификатор кодека : 2000
Продолжительность : 1 ч. 29 м.
Вид битрейта : Постоянный
Битрейт : 192 Кбит/сек
Каналы : 2 канала
Расположение каналов : Front: L R
Частота : 48,0 КГц
Метод сжатия : С потерями
Размер потока : 123 Мбайт (8%)
Выравнивание : Разделение по промежуткам
Продолжительность промежутка : 40 мс. (1,00 видеокадр)
Время предзагрузки промежутка : 500 мс.
picpicpicpic
Для увеличения картинки щелкните мышкой по превью

Этот торрент недоступен для скачивания без регистрации, однако доступен по публичной magnet-ссылке (источники с публичных трекеров). Перед использованием ссылки прочтите, пожалуйста Пользовательское соглашение, а также как можно дольше оставайтесь на раздаче! Для того, чтобы скачать сам торрент-файл (который видит больше источников), а также для того, чтобы поблагодарить релизера, вам необходимо зарегистрироваться. Если регистрироваться лень - вы можете также попробовать скачать релиз по нашим партнерским ссылкам ниже.

[underverse.su].t63426.torrent
Трекер: Зарегистрирован   [ 21.02.2016 18:20 ]  

Статус: проверено (by 90ytr90 at 21.02.2016 18:37)
Поблагодарили: пока никто не поблагодарил...
Тип торрента: публичный - доступные источники с открытых трекеров: 
Размер: 1,45 GB (занимает 1/3 DVDR, для записи нужно 1 болванка DVDR/RW)
 
 


Последний раз редактировалось: ARI71 (21.02.2016 18:33), всего редактировалось 1 раз

ARI71 Пол:Муж

21-Фев-2016 18:23

Всем любителям природы - приятного просмотра!

Яндекс.Метрика powered by Sphinx


В Н И М А Н И Е
Сайт не распространяет и не хранит электронные версии произведений, а лишь бесплатно и без коммерческой выгоды (не требуя взамен платы,
SMS и т.д.) предоставляет доступ к создаваемому пользователями каталогу ссылок на торрент-файлы, которые содержат только списки хеш-сумм.
Убедительная просьба с жалобами обращаться напрямую к пользователю, разместившему торрент файл.

Вверх