Loading...
Error

Леонид Куравлев. Афоня и другие [2016 г., документальный, биография, история, SatRip]

Статистика раздачи
Размер:  710 MB   |    Зарегистрирован:  9 месяцев   |    Скачан:  6 раз

Полного источника не было: 1 месяц 11 дней

Сидов:  0  |  0 KB/s  ]   Личеров:  0  |  0 KB/s  ]

* - сиды/пиры с внешних источников

   
 
Автор Сообщение

ARI71 Пол:Муж

21-Фев-2016 08:15

Леонид Куравлев. Афоня и другие


Год выпуска: 2016
Жанр: документальный, биография, история
Страна: Россия, ООО "Контраст"
Режиссер: Георгий Ананов
В ролях: Леонид Куравлев
Сюжет фильма:
У Леонида Куравлёва богатая фильмография – почти двести ролей. Но ни Жоржем Милославским, ни Хомой Брутом, ни Робинзоном его на улице не называют. А вот Афоней – запросто. Нередко актёры перед съёмками специально погружаются в среду, которая описана в сценарии. Если предстоит играть хирурга - часами стоят в операционной, если учителя – сидят на уроках в школе. Леониду Куравлёву не пришлось погружаться. "Создавать себя алкоголиком не пришлось. Я из очень простых корней, я москвич, но на окраине жил у тетки - рядом с Измайловым. Там был такой хулиганский район – так что таких вот как Афоня я насмотрелся" - говорит актёр. Также мы покажем уникальные кадры, которые нам предоставил житель деревни Диево-Городище Ярославской области Ювеналий Лебедев. Когда в его деревне снимался "Афоня", Ювеналий снимал этот процесс на собственную кинокамеру! Так, он запечатлел, как Савелий Крамаров на тракторе врезался в столб. Это видео зрители увидят впервые!

Леони́д Вячесла́вович Куравлёв (род. 8 октября 1936, Москва) — советский и российский актёр театра и кино. Заслуженный артист РСФСР (1965), Народный артист РСФСР (1976).
Качество видео: SatRip

Продолжительность: 00:49:37
Формат: AVI
Видео: XviD, 704x448, ~1800 kbps
Аудио: русский, оригинал, AC3 2.0, ~192.00 kbps

Код:

Общее
Полное имя : D:\Leonid.Kuravlev-Afonya.i.Drugie.SATRip.[www.*другой трекер*].avi
Формат : AVI
Формат/Информация : Audio Video Interleave
Размер файла : 710 Мбайт
Продолжительность : 49 м.
Общий поток : 2002 Кбит/сек
Программа кодирования : VirtualDubMod 1.5.10.3 | www.virtualdub-fr.org || (build 2550/release)
Библиотека кодирования : VirtualDubMod build 2550/release

Видео
Идентификатор : 0
Формат : MPEG-4 Visual
Профиль формата : Advanced Simple@L5
Параметр BVOP формата : 2
Параметр QPel формата : Нет
Параметр GMC формата : Без точки перехода
Параметр матрицы формата : Default (H.263)
Идентификатор кодека : XVID
Идентификатор кодека/Подсказка : XviD
Продолжительность : 49 м.
Битрейт : 1800 Кбит/сек
Ширина : 704 пикселя
Высота : 448 пикселей
Соотношение сторон : 16:10
Частота кадров : 25,000 кадров/сек
Цветовое пространство : YUV
Субдискретизация насыщенности : 4:2:0
Битовая глубина : 8 бит
Тип развёртки : Прогрессивная
Метод сжатия : С потерями
Бит/(Пиксели*Кадры) : 0.228
Размер потока : 639 Мбайт (90%)
Библиотека кодирования : XviD 1.2.1 (UTC 2008-12-04)

Аудио
Идентификатор : 1
Формат : AC-3
Формат/Информация : Audio Coding 3
Расширение режима : CM (complete main)
Параметр Endianness формата : Big
Идентификатор кодека : 2000
Продолжительность : 49 м.
Вид битрейта : Постоянный
Битрейт : 192 Кбит/сек
Каналы : 2 канала
Расположение каналов : Front: L R
Частота : 48,0 КГц
Метод сжатия : С потерями
Размер потока : 68,1 Мбайт (10%)
Выравнивание : Разделение по промежуткам
Продолжительность промежутка : 40 мс. (1,00 видеокадр)
Время предзагрузки промежутка : 500 мс.
picpicpicpic
Для увеличения картинки щелкните мышкой по превью

Этот торрент недоступен для скачивания без регистрации, однако доступен по публичной magnet-ссылке (источники с публичных трекеров). Перед использованием ссылки прочтите, пожалуйста Пользовательское соглашение, а также как можно дольше оставайтесь на раздаче! Для того, чтобы скачать сам торрент-файл (который видит больше источников), а также для того, чтобы поблагодарить релизера, вам необходимо зарегистрироваться. Если регистрироваться лень - вы можете также попробовать скачать релиз по нашим партнерским ссылкам ниже.

[underverse.su].t63384.torrent
Трекер: Зарегистрирован   [ 21.02.2016 08:15 ]  

Статус: проверено (by makkol at 21.02.2016 08:28)
Поблагодарили: 1 человек
Тип торрента: публичный - доступные источники с открытых трекеров: 
Размер: 710 MB (занимает 0,16 DVDR, для записи нужно 1 болванка DVDR/RW)
 
 

ARI71 Пол:Муж

24-Фев-2016 08:41

Уважаемые пользователи сайта, просьба к скачавшим: пож-та оставайтесь как можно дольше на раздаче релиза. Это даёт возможность релизёру создавать для вас новые релизы!

Яндекс.Метрика powered by Sphinx


В Н И М А Н И Е
Сайт не распространяет и не хранит электронные версии произведений, а лишь бесплатно и без коммерческой выгоды (не требуя взамен платы,
SMS и т.д.) предоставляет доступ к создаваемому пользователями каталогу ссылок на торрент-файлы, которые содержат только списки хеш-сумм.
Убедительная просьба с жалобами обращаться напрямую к пользователю, разместившему торрент файл.

Вверх