Loading...
Error

Нефертити и пропавшая династия / Nefertiti And The Lost Dynasty [2007 г., документальный, научно-познавательный, история, SatRip] VO + Original

Статистика раздачи
Размер:  648 MB   |    Зарегистрирован:  9 месяцев   |    Скачан:  11 раз

Полного источника не было: 2 часа 2 минуты

Сидов:  0  |  0 KB/s  ]   Личеров:  0  |  0 KB/s  ]

* - сиды/пиры с внешних источников

   
 
Автор Сообщение

ARI71 Пол:Муж

21-Фев-2016 06:28

Нефертити и пропавшая династия / Nefertiti And The Lost Dynasty


Год выпуска: 2007
Жанр: документальный, научно-познавательный, история
Страна: США
Режиссер: National Geographic
Сюжет фильма:
Нефертити и ее муж Эхнатон. Что с ними произошло? До сих пор этот вопрос интересует исследователей. Современная техника сейчас дает возможность получить новую информацию. С помощью компьютерной томографии ученые хотят разгадать тайну Нефертити и потерянной династии, тайну, уже несколько веков беспокоящую науку. В одной из когда-то обнаруженных мумий ученые видят именно Нефертити, об этом говорят несколько признаков. А вот другие ученые не согласны с такими выводами и настаивают, что эти признаки случайны. Нефертити - одна из легендарных цариц благородных корней. Она была символом красоты. Многие гробницы Египта были ограблены, поэтому определить где царица непросто, кроме того мумии были частично повреждены, что усложняет ученым работу.

Неферти́ти (Нефер-Неферу-Атон Нефертити, др.-егип. Nfr-nfr.w-Jtn-Nfr.t-jty, «Прекрасная красота Атона, красавица пришла») — «главная супруга» древнеегипетского фараона XVIII династии Эхнатона (ок. 1351—1334 до н. э.), время правления которого ознаменовалось крупномасштабной религиозной реформой. Роль самой царицы в проведении «солнцепоклоннического переворота» спорна.


Качество видео: SatRip

Продолжительность: 00:47:24
Формат: AVI
Видео: XviD, 720x416, ~1640 kbps
Аудио #1: русский, одноголосый [профессиональный], MP3 2.0, ~128.00 kbps
Аудио #2: английский, оригинал, MP3 2.0, ~128.00 kbps

Код:

Общее
Полное имя : D:\114-l-nef_i_prop_din.avi
Формат : AVI
Формат/Информация : Audio Video Interleave
Размер файла : 648 Мбайт
Продолжительность : 47 м.
Общий поток : 1911 Кбит/сек
Программа кодирования : VirtualDubMod 1.5.10.2 (build 2542/release)
Библиотека кодирования : VirtualDubMod build 2542/release

Видео
Идентификатор : 0
Формат : MPEG-4 Visual
Профиль формата : Advanced Simple@L5
Параметр BVOP формата : 1
Параметр QPel формата : Нет
Параметр GMC формата : Без точки перехода
Параметр матрицы формата : Выборочная
Идентификатор кодека : XVID
Идентификатор кодека/Подсказка : XviD
Продолжительность : 47 м.
Битрейт : 1641 Кбит/сек
Ширина : 720 пикселей
Высота : 416 пикселей
Соотношение сторон : 1,731
Частота кадров : 25,000 кадров/сек
Цветовое пространство : YUV
Субдискретизация насыщенности : 4:2:0
Битовая глубина : 8 бит
Тип развёртки : Прогрессивная
Метод сжатия : С потерями
Бит/(Пиксели*Кадры) : 0.219
Размер потока : 557 Мбайт (86%)
Библиотека кодирования : XviD 1.3.0.dev55

Аудио #1
Идентификатор : 1
Формат : MPEG Audio
Версия формата : Version 1
Профиль формата : Layer 3
Режим : Joint stereo
Расширение режима : MS Stereo
Идентификатор кодека : 55
Идентификатор кодека/Подсказка : MP3
Продолжительность : 47 м.
Вид битрейта : Постоянный
Битрейт : 128 Кбит/сек
Каналы : 2 канала
Частота : 48,0 КГц
Метод сжатия : С потерями
Размер потока : 43,4 Мбайт (7%)
Выравнивание : Соединение по промежуткам
Продолжительность промежутка : 40 мс. (1,00 видеокадр)
Время предзагрузки промежутка : 504 мс.
Библиотека кодирования : LAME3.98.2ЄЄЄЄЄЄЄЄЄЄ

Аудио #2
Идентификатор : 2
Формат : MPEG Audio
Версия формата : Version 1
Профиль формата : Layer 3
Режим : Joint stereo
Идентификатор кодека : 55
Идентификатор кодека/Подсказка : MP3
Продолжительность : 47 м.
Вид битрейта : Постоянный
Битрейт : 128 Кбит/сек
Каналы : 2 канала
Частота : 48,0 КГц
Метод сжатия : С потерями
Размер потока : 43,4 Мбайт (7%)
Выравнивание : Соединение по промежуткам
Продолжительность промежутка : 40 мс. (1,00 видеокадр)
Время предзагрузки промежутка : 504 мс.
Библиотека кодирования : LAME3.98}©$УPUщ•ЌY
picpicpicpic
Для увеличения картинки щелкните мышкой по превью

Этот торрент недоступен для скачивания без регистрации, однако доступен по публичной magnet-ссылке (источники с публичных трекеров). Перед использованием ссылки прочтите, пожалуйста Пользовательское соглашение, а также как можно дольше оставайтесь на раздаче! Для того, чтобы скачать сам торрент-файл (который видит больше источников), а также для того, чтобы поблагодарить релизера, вам необходимо зарегистрироваться. Если регистрироваться лень - вы можете также попробовать скачать релиз по нашим партнерским ссылкам ниже.

[underverse.su].t63381.torrent
Трекер: Зарегистрирован   [ 21.02.2016 06:28 ]  

Статус: проверено (by makkol at 21.02.2016 08:26)
Поблагодарили: 1 человек
Тип торрента: публичный - доступные источники с открытых трекеров: 
Размер: 648 MB (занимает 0,14 DVDR, для записи нужно 1 болванка DVDR/RW)
 
 

ARI71 Пол:Муж

23-Фев-2016 06:56

Оставатесь пож-та как можно дольше на раздаче! Тем самым вы даёте возможность релизёру создавать новые релизы!

Яндекс.Метрика powered by Sphinx


В Н И М А Н И Е
Сайт не распространяет и не хранит электронные версии произведений, а лишь бесплатно и без коммерческой выгоды (не требуя взамен платы,
SMS и т.д.) предоставляет доступ к создаваемому пользователями каталогу ссылок на торрент-файлы, которые содержат только списки хеш-сумм.
Убедительная просьба с жалобами обращаться напрямую к пользователю, разместившему торрент файл.

Вверх