Loading...
Error

Идеальное убийство / A Perfect Murder (Эндрю Дэвис) [1998 г., триллер, драма, криминальный, BDRip] Dub + Dub + Original (Eng)

Статистика раздачи
Размер:  2,18 GB   |    Зарегистрирован:  9 месяцев   |    Скачан:  7 раз

Полного источника не было: 18 часов

Сидов:  0  |  0 KB/s  ]   Личеров:  0  |  0 KB/s  ]

* - сиды/пиры с внешних источников

   
 
Автор Сообщение

styler-3d 

20-Фев-2016 14:49

Идеальное убийство / A Perfect Murder


Год выпуска: 1998
Жанр: триллер, драма, криминальный
Страна: США
Режиссер: Эндрю Дэвис
В ролях: Майкл Дуглас, Гвинет Пэлтроу, Вигго Мортенсен, Дэвид Суше, Сарита Чоудри, Майкл П. Моран, Новелла Нельсон, Констанс Тауэрс, Уилл Лиман, Маив МакГуайр
Сюжет фильма:
Преуспевающий бизнесмен Стивен Тэйлор, испытывающий серьезные трудности на работе, грозящие ему разорением, узнает, что жена Эмили, женщина очень богатая, изменяет ему с художником Дэвидом.
Наведя справки, он узнает, что Дэвид вовсе не художник, а брачный аферист с солидным «послужным» списком и рядом отсидок в тюрьме. Встретившись с Дэвидом, Стивен предлагает ему 500 тысяч долларов за убийство собственной жены…

  • Мировая премьера: 5 июня 1998


Качество видео: BDRip

Продолжительность: 01:47:26
Формат: AVI
Видео: XviD, 720x400, 1924 kbps
Аудио #1: русский, дублированный [лицензия], AC3 2.0, 384 kbps
Аудио #2: русский, дублированный [лицензия], AC3 2.0, 192 kbps
Аудио #3: английский [лицензия], AC3 2.0, 384 kbps

Код:

Общее
Полное имя                               : Idealnoe.ubijstvo.1998.TRIPLE.BDRip.XviD.AC3.-HQCLUB\Idealnoe.ubijstvo.1998.TRIPLE.BDRip.XviD.AC3.-HQCLUB.avi
Формат                                   : AVI
Формат/Информация                        : Audio Video Interleave
Профиль формата                          : OpenDML
Размер файла                             : 2,18 Гбайт
Продолжительность                        : 1 ч. 47 м.
Общий поток                              : 2908 Кбит/сек
Название фильма                          : Идеальное убийство / A Perfect Murder (1998) BDRip
Режиссёр                                 : kingsize87
Программа кодирования                    : VirtualDubMod 1.5.10.2 (build 2542/release)
Авторское право                          : http://hqclub.net/
Примечание                               : 13.10.2012

Видео
Идентификатор                            : 0
Формат                                   : MPEG-4 Visual
Профиль формата                          : Advanced Simple@L5
Параметр BVOP формата                    : 1
Параметр QPel формата                    : Нет
Параметр GMC формата                     : Без точки перехода
Параметр матрицы формата                 : Выборочная
Идентификатор кодека                     : XVID
Идентификатор кодека/Подсказка           : XviD
Продолжительность                        : 1 ч. 47 м.
Битрейт                                  : 1924 Кбит/сек
Ширина                                   : 720 пикселей
Высота                                   : 400 пикселей
Соотношение сторон                       : 16:9
Частота кадров                           : 23,976 (24000/1001) кадра/сек
Цветовое пространство                    : YUV
Субдискретизация насыщенности            : 4:2:0
Битовая глубина                          : 8 бит
Тип развёртки                            : Прогрессивная
Метод сжатия                             : С потерями
Бит/(Пиксели*Кадры)                      : 0.279
Размер потока                            : 1,44 Гбайт (66%)
Библиотека кодирования                   : XviD 65

Аудио #1
Идентификатор                            : 1
Формат                                   : AC-3
Формат/Информация                        : Audio Coding 3
Расширение режима                        : CM (complete main)
Параметр Endianness формата              : Big
Идентификатор кодека                     : 2000
Продолжительность                        : 1 ч. 47 м.
Вид битрейта                             : Постоянный
Битрейт                                  : 384 Кбит/сек
Каналы                                   : 6 каналов
Расположение каналов                     : Front: L C R, Side: L R, LFE
Частота                                  : 48,0 КГц
Частота кадров                           : 31,250 кадров/сек (1536 spf)
Метод сжатия                             : С потерями
Размер потока                            : 295 Мбайт (13%)
Выравнивание                             : Разделение по промежуткам
Продолжительность промежутка             : 42  мс. (1,00 видеокадр)
Время предзагрузки промежутка            : 500  мс.

Аудио #2
Идентификатор                            : 2
Формат                                   : AC-3
Формат/Информация                        : Audio Coding 3
Расширение режима                        : CM (complete main)
Параметр Endianness формата              : Big
Идентификатор кодека                     : 2000
Продолжительность                        : 1 ч. 47 м.
Вид битрейта                             : Постоянный
Битрейт                                  : 192 Кбит/сек
Каналы                                   : 2 канала
Расположение каналов                     : Front: L R
Частота                                  : 48,0 КГц
Частота кадров                           : 31,250 кадров/сек (1536 spf)
Метод сжатия                             : С потерями
Размер потока                            : 147 Мбайт (7%)
Выравнивание                             : Разделение по промежуткам
Продолжительность промежутка             : 42  мс. (1,00 видеокадр)
Время предзагрузки промежутка            : 500  мс.

Аудио #3
Идентификатор                            : 3
Формат                                   : AC-3
Формат/Информация                        : Audio Coding 3
Расширение режима                        : CM (complete main)
Параметр Endianness формата              : Big
Идентификатор кодека                     : 2000
Продолжительность                        : 1 ч. 47 м.
Вид битрейта                             : Постоянный
Битрейт                                  : 384 Кбит/сек
Каналы                                   : 6 каналов
Расположение каналов                     : Front: L C R, Side: L R, LFE
Частота                                  : 48,0 КГц
Частота кадров                           : 31,250 кадров/сек (1536 spf)
Метод сжатия                             : С потерями
Размер потока                            : 295 Мбайт (13%)
Выравнивание                             : Разделение по промежуткам
Продолжительность промежутка             : 42  мс. (1,00 видеокадр)
Время предзагрузки промежутка            : 500  мс.
Семпл: https://www.youtube.com/watch?v=aaQ8YI-rX2s

Релиз группы:

pic
Для увеличения картинки щелкните мышкой по превью

Этот торрент недоступен для скачивания без регистрации, однако доступен по публичной magnet-ссылке (источники с публичных трекеров). Перед использованием ссылки прочтите, пожалуйста Пользовательское соглашение, а также как можно дольше оставайтесь на раздаче! Для того, чтобы скачать сам торрент-файл (который видит больше источников), а также для того, чтобы поблагодарить релизера, вам необходимо зарегистрироваться. Если регистрироваться лень - вы можете также попробовать скачать релиз по нашим партнерским ссылкам ниже.

[underverse.su].t63364.torrent
Трекер: Зарегистрирован   [ 20.02.2016 14:49 ]  

Статус: ? недооформлено (by 90ytr90 at 21.02.2016 07:51)
Поблагодарили: пока никто не поблагодарил...
Тип торрента: публичный - доступные источники с открытых трекеров: 
Размер: 2,18 GB (занимает 1/2 DVDR, для записи нужно 1 болванка DVDR/RW)
 
 
Похожие темы
Форум Тема Автор Торрент Отв. Посл. сооб.
Наше кино [DVDRip, Low-Res HDRip, и т.д.] Идеальное убийство (Андрей Хрулев) [2013 г., детектив, SATRip] 90ytr90
0 | 0

0 | 1859

14

24.11.2013 12:34

90ytr90 

21-Фев-2016 07:50

Отчет MediaInfo писал(а):

Аудио #1: AC3, 384 kbps, 6 ch, 48 kHz
Аудио #2: AC3, 192 kbps, 2 ch, 48 kHz
Аудио #3: AC3, 384 kbps, 6 ch, 48 kHz

Автор рипа: kingsize87 писал(а):

Перевод: Профессиональный (полное дублирование) Мост Видео + Профессиональный (многоголосый, закадровый) ТК Россия + Оригинальная звуковая дорожка

Субтитры: Русские (полные, форсированные), Английские (полные, SDH) (внешние srt*)
Пример шапки:
Идеальное убийство / A Perfect Murder (Эндрю Дэвис / Andrew Davis) [1998, триллер, драма, криминал, BDRip] Dub (Мост Видео) + MVO (ТК Россия) + Original (Eng) + Sub (Rus, Eng)

:right: Общие правила и рекомендации оформления и раздачи релизов «Видео»

Цитата:

10.4 Скриншоты должны быть оформлены в виде кликабельных миниатюр с указанным разрешением исходного файла, в строку, через пробел по принципу: 1 кадр = 1 скриншот! (такой формат предоставляет наш визард и галерея при массовой загрузке)
Это разве семпл?

Яндекс.Метрика powered by Sphinx


В Н И М А Н И Е
Сайт не распространяет и не хранит электронные версии произведений, а лишь бесплатно и без коммерческой выгоды (не требуя взамен платы,
SMS и т.д.) предоставляет доступ к создаваемому пользователями каталогу ссылок на торрент-файлы, которые содержат только списки хеш-сумм.
Убедительная просьба с жалобами обращаться напрямую к пользователю, разместившему торрент файл.

Вверх