Loading...
Error

Человек-невидимка / The Invisible Man / Сезон: 1 / Серии: 1-24 + Доп. Материалы (Брэк Айснер) [2000 г., фантастика, приключения, DVD-Remux] MVO + Original

Статистика раздачи
Размер:  37,1 GB   |    Зарегистрирован:  9 месяцев   |    Скачан:  6 раз

Полного источника не было: 6 часов

Сидов:  0  |  0 KB/s  ]   Личеров:  0  |  0 KB/s  ]

* - сиды/пиры с внешних источников

   
 
Автор Сообщение

Angel Of Retribution Пол:Муж

20-Фев-2016 12:12

Человек-невидимка / The Invisible Man / Сезон: 1


Год выпуска: 2000
Жанр: фантастика, приключения
Страна: США
Режиссер: Брэк Айснер
В ролях: Винсент Вентреска, Пол Бен-Виктор, Шеннон Кенни, Эдди Джонс, Майкл МакКафферти
Сюжет фильма:
Мелкий воришка Дариан так бы и провел свою никчемную жизнь, периодически пребывая за решеткой, если бы не принял участие в необычном научном эксперименте, благодаря которому в его голову был введен ртутный имплатант, позволяющий ему превращаться в невидимку.

Операция, к счастью, прошла успешно, однако после все пошло не так, как ожидалось… Убивают брата Дариана, и теперь он вынужден добыть секретное правительственное оружие в обмен на чип, которым управляет продажный контрагент, угрожающий сделать из него безумца…

Качество видео: DVD-Remux

Продолжительность: ~00:44:00 серия
Формат: MKV
Видео: MPEG-2 Video, 720x480@853x480, 29.970 fps, 4433 kbps
Аудио #1: русский, многоголосый закадровый [профессиональный, СТС], MP3 2.0, 48 kHz, 192 kbps
Аудио #2: английский, оригинал, AC3 2.0, 48 kHz, 192 kbps

Код:

General
Unique ID                   : 248901008727880333034620625618710056497 (0xBB409730E3528A9DED37C4C95F204E31)
Complete name               : D:\Downloads\2\22\The Invisible Man S1 DVD-Remux\1x13 - Reunion.mkv
Format                      : Matroska
File size                   : 1.52 GiB
Duration                    : 44mn 4s
Overall bit rate mode       : Variable
Overall bit rate            : 4 935 Kbps
Writing application         : AVI-Mux GUI 1.17.8, Aug 30 2008  12:36:58
Writing library             : matroska muxer by Alexander Noe, build date Aug 30 2008
BPS                         : 191995

Video
ID                          : 1
Format                      : MPEG Video
Format version              : Version 2
Format profile              : Main@Main
Format settings, BVOP       : Yes
Format settings, Matrix     : Custom
Format settings, GOP        : Variable
Format settings, picture st : Frame
Codec ID                    : V_MPEG2
Codec ID/Info               : MPEG 1 or 2 Video
Duration                    : 44mn 4s
Bit rate mode               : Variable
Bit rate                    : 4 453 Kbps
Maximum bit rate            : 9 800 Kbps
Width                       : 720 pixels
Height                      : 480 pixels
Display aspect ratio        : 16:9
Frame rate mode             : Constant
Frame rate                  : 30.000 fps
Original frame rate         : 29.970 (30000/1001) fps
Color space                 : YUV
Chroma subsampling          : 4:2:0
Bit depth                   : 8 bits
Scan type                   : Interlaced
Scan order                  : Top Field First
Compression mode            : Lossy
Bits/(Pixel*Frame)          : 0.429
Time code of first frame    : 00:59:59;00
Time code source            : Group of pictures header
GOP, Open/Closed            : Open
GOP, Open/Closed of first f : Closed
Stream size                 : 1.37 GiB (90%)
Language                    : English
Default                     : No
Forced                      : No

Audio #1
ID                          : 2
Format                      : MPEG Audio
Format version              : Version 1
Format profile              : Layer 3
Mode                        : Joint stereo
Codec ID                    : A_MPEG/L3
Codec ID/Hint               : MP3
Duration                    : 44mn 4s
Bit rate mode               : Constant
Bit rate                    : 192 Kbps
Channel(s)                  : 2 channels
Sampling rate               : 48.0 KHz
Compression mode            : Lossy
Stream size                 : 60.5 MiB (4%)
Language                    : Russian
Default                     : Yes
Forced                      : No

Audio #2
ID                          : 3
Format                      : AC-3
Format/Info                 : Audio Coding 3
Mode extension              : CM (complete main)
Format settings, Endianness : Big
Codec ID                    : A_AC3
Duration                    : 44mn 4s
Bit rate mode               : Constant
Bit rate                    : 192 Kbps
Channel(s)                  : 2 channels
Channel positions           : Front: L R
Sampling rate               : 48.0 KHz
Frame rate                  : 31.250 fps (1536 spf)
Compression mode            : Lossy
Stream size                 : 60.5 MiB (4%)
Language                    : English
Default                     : No
Forced                      : No

Menu
Default                     : Yes
Forced                      : No
00:00:00.000                : en:Chapter 01
00:03:12.125                : en:Chapter 02
00:20:23.755                : en:Chapter 03
00:31:08.233                : en:Chapter 04

1. Звуковые комметарии Брэка Айснера (режиссёр), Метта Гринберга (создатель, продюсер), Винсента Вентрески (актёр) к пилоту (без перевода)
2. Первая серия второго сезона "Легенды" (перевод СТС)
3. Интервью сценариста Мэтта Гринберга о создании сериала (eng, перевод субтитрами)

В раздаче представлен альтернативный вариант серии 23 (Хоббс арестовывает Фокса) - альтернативные сцены переведены субтитрами.
picpicpic
Для увеличения картинки щелкните мышкой по превью

Этот торрент недоступен для скачивания без регистрации, однако доступен по публичной magnet-ссылке (источники с публичных трекеров). Перед использованием ссылки прочтите, пожалуйста Пользовательское соглашение, а также как можно дольше оставайтесь на раздаче! Для того, чтобы скачать сам торрент-файл (который видит больше источников), а также для того, чтобы поблагодарить релизера, вам необходимо зарегистрироваться. Если регистрироваться лень - вы можете также попробовать скачать релиз по нашим партнерским ссылкам ниже.

[underverse.su].t63360.torrent
Трекер: Зарегистрирован   [ 20.02.2016 14:01 ]  

Статус: проверено (by makkol at 21.02.2016 12:45)
Поблагодарили: пока никто не поблагодарил...
Тип торрента: публичный - доступные источники с открытых трекеров: 
Размер: 37,1 GB (занимает 8,47 DVDR, для записи нужно 9 болванок DVDR/RW)
 
 


Последний раз редактировалось: Angel Of Retribution (21.02.2016 00:45), всего редактировалось 4 раз(а)

21-Фев-2016 07:47

Топик был перенесен из форума Зарубежные сериалы [BD / Remux / BDRip / WEB-DL / HDTV 1080/720р] в форум Зарубежные сериалы


makkol
 

Яндекс.Метрика powered by Sphinx


В Н И М А Н И Е
Сайт не распространяет и не хранит электронные версии произведений, а лишь бесплатно и без коммерческой выгоды (не требуя взамен платы,
SMS и т.д.) предоставляет доступ к создаваемому пользователями каталогу ссылок на торрент-файлы, которые содержат только списки хеш-сумм.
Убедительная просьба с жалобами обращаться напрямую к пользователю, разместившему торрент файл.

Вверх