Loading...
Error

"Первопроходцы Дальнего Востока". Владимир Арсеньев. Капитан тайги [2011 г., документальный, история, биография, путешествия, SatRip]

Статистика раздачи
Размер:  586 MB   |    Зарегистрирован:  9 месяцев   |    Скачан:  4 раза

Полного источника не было: 1 месяц 9 дней

Сидов:  0  |  0 KB/s  ]   Личеров:  0  |  0 KB/s  ]

* - сиды/пиры с внешних источников

   
 
Автор Сообщение

ARI71 Пол:Муж

19-Фев-2016 09:45

"Первопроходцы Дальнего Востока". Владимир Арсеньев. Капитан тайги


Год выпуска: 2011
Жанр: документальный, история, биография, путешествия
Страна: Россия, ЗАО "ИД Комсомольская правда", РГО
Режиссер: Александр Свешников
Сюжет фильма:
Этот кинофильм ведает о жизни и творчестве известного исследователя Дальнего Востока - Владимира Клавдиевича Арсеньева. Участники экспедиции газеты "Комсомольская правда" пройдут тропой Арсеньева по Уссурийской тайге, вспомянут о трагических страницах его биографии, с помощью кинематографического приёма исторической реконструкции попытаются представить, какой непростой и небезопасной была работа мужественного путника и его верных друзей...
Интересно будет всем кто интересуется таёжным туризмом, походами, путешествиями, историей России и Дальнего Востока.

Влади́мир Кла́вдиевич Арсе́ньев (29 августа (10 сентября) 1872, Санкт-Петербург, Российская империя — 4 сентября 1930, Владивосток, СССР) — русский и советский путешественник, географ, этнограф, писатель, исследователь Дальнего Востока.
Качество видео: SatRip

Продолжительность: 00:50:03
Формат: AVI
Видео: XviD, 704x400, ~1496 kbps
Аудио: русский, оригинал, MP3 2.0, ~128.00 kbps

Код:

Общее
Полное имя : D:\Kapitan.Arsenev.avi
Формат : AVI
Формат/Информация : Audio Video Interleave
Размер файла : 586 Мбайт
Продолжительность : 50 м.
Общий поток : 1638 Кбит/сек
Программа кодирования : Lavf52.61.0

Видео
Идентификатор : 0
Формат : MPEG-4 Visual
Профиль формата : Simple@L3
Параметр BVOP формата : Нет
Параметр QPel формата : Нет
Параметр GMC формата : Без точки перехода
Параметр матрицы формата : Default (H.263)
Идентификатор кодека : XVID
Идентификатор кодека/Подсказка : XviD
Продолжительность : 50 м.
Битрейт : 1497 Кбит/сек
Ширина : 704 пикселя
Высота : 400 пикселей
Соотношение сторон : 16:9
Частота кадров : 25,000 кадров/сек
Цветовое пространство : YUV
Субдискретизация насыщенности : 4:2:0
Битовая глубина : 8 бит
Тип развёртки : Прогрессивная
Метод сжатия : С потерями
Бит/(Пиксели*Кадры) : 0.213
Размер потока : 536 Мбайт (91%)
Библиотека кодирования : XviD 63

Аудио
Идентификатор : 1
Формат : MPEG Audio
Версия формата : Version 1
Профиль формата : Layer 3
Режим : Joint stereo
Расширение режима : MS Stereo
Идентификатор кодека : 55
Идентификатор кодека/Подсказка : MP3
Продолжительность : 50 м.
Вид битрейта : Постоянный
Битрейт : 128 Кбит/сек
Каналы : 2 канала
Частота : 48,0 КГц
Метод сжатия : С потерями
Размер потока : 45,8 Мбайт (8%)
Выравнивание : Соединение по промежуткам
Продолжительность промежутка : 24 мс. (0,60 видеокадр)
Библиотека кодирования : LAME3.99UUU”’qЛlЌ$
picpicpicpic
Для увеличения картинки щелкните мышкой по превью

Этот торрент недоступен для скачивания без регистрации, однако доступен по публичной magnet-ссылке (источники с публичных трекеров). Перед использованием ссылки прочтите, пожалуйста Пользовательское соглашение, а также как можно дольше оставайтесь на раздаче! Для того, чтобы скачать сам торрент-файл (который видит больше источников), а также для того, чтобы поблагодарить релизера, вам необходимо зарегистрироваться. Если регистрироваться лень - вы можете также попробовать скачать релиз по нашим партнерским ссылкам ниже.

[underverse.su].t63322.torrent
Трекер: Зарегистрирован   [ 19.02.2016 09:45 ]  

Статус: проверено (by makkol at 19.02.2016 10:15)
Поблагодарили: пока никто не поблагодарил...
Тип торрента: публичный - доступные источники с открытых трекеров: 
Размер: 586 MB (занимает 0,13 DVDR, для записи нужно 1 болванка DVDR/RW)
 
 
Похожие темы
Форум Тема Автор Торрент Отв. Посл. сооб.
Личности "Первопроходцы Дальнего Востока". Григорий Федосеев. Река Мая [2011 г., документальный, история, биография, путешествия, SatRip] ARI71
1 | 0

0 | 366

3

21.02.2016 05:49


Яндекс.Метрика powered by Sphinx


В Н И М А Н И Е
Сайт не распространяет и не хранит электронные версии произведений, а лишь бесплатно и без коммерческой выгоды (не требуя взамен платы,
SMS и т.д.) предоставляет доступ к создаваемому пользователями каталогу ссылок на торрент-файлы, которые содержат только списки хеш-сумм.
Убедительная просьба с жалобами обращаться напрямую к пользователю, разместившему торрент файл.

Вверх