Loading...
Error

Мальчик и пираты / The Boy and the Pirates (Берт А. Гордон) [1960 г., фэнтези, приключения, семейный, DVDRip] VO

Статистика раздачи
Размер:  1,37 GB   |    Зарегистрирован:  9 месяцев   |    Скачан:  0 раз

Полного источника не было: 9 месяцев

Сидов:  0  |  0 KB/s  ]   Личеров:  0  |  0 KB/s  ]

* - сиды/пиры с внешних источников

   
 
Автор Сообщение

makkol Пол:Муж

18-Фев-2016 14:48

Мальчик и пираты / The Boy and the Pirates


Год выпуска: 1960
Жанр: фэнтези, приключения, семейный
Производство: США [Bert I. Gordon Productions]
Режиссер: Берт А. Гордон
В ролях: Чарльз Херберт, Сьюзэн Гордон, Мервин Вай, Пол Гилфойл, Джо Тёркел, Арчи Дункан, Тан Вьенн, Альберт Кавенс, Мики Финн, Морган Джонс, Тимоти Кэри
Сюжет фильма:
Мальчик по имени Джимми живёт с родителями на побережье в Массачусетсе. Он далеко не в восторге от современной жизни с её обязанностями перед родителями. Однажды, играя на побережье возле старого судна, Джимми находит старинную флягу и мечтает очутиться в прошлом, когда в море орудовали пираты. Его желание не остаётся неуслышанным. Очнувшись на пиратской шхуне, он понимает, что в этом замешан Абу — джин из старинной фляги.

  • Мировая премьера: 13 апреля 1960


Качество видео: DVDRip

Продолжительность: 01:24:09
Формат: AVI
Видео: XviD, 720x400 (16:9), 29.970 fps, 2187 kbps
Аудио: русский, любительский одноголосый закадровый, MP3 2.0, 48 kHz, 128 kbps

Код:

Общее
Формат                                   : AVI
Формат/Информация                        : Audio Video Interleave
Размер файла                             : 1,37 Гбайт
Продолжительность                        : 1 ч. 24 м.
Общий поток                              : 2327 Кбит/сек
Программа кодирования                    : VirtualDubMod 1.5.10.2 (build 2540/release)
Библиотека кодирования                   : VirtualDubMod build 2540/release

Видео
Идентификатор                            : 0
Формат                                   : MPEG-4 Visual
Профиль формата                          : Advanced Simple@L5
Параметр BVOP формата                    : 3
Параметр QPel формата                    : Нет
Параметр GMC формата                     : Без точки перехода
Параметр матрицы формата                 : Default (H.263)
Идентификатор кодека                     : XVID
Идентификатор кодека/Подсказка           : XviD
Продолжительность                        : 1 ч. 24 м.
Битрейт                                  : 2187 Кбит/сек
Ширина                                   : 720 пикселей
Высота                                   : 400 пикселей
Соотношение сторон                       : 16:9
Частота кадров                           : 29,970 кадров/сек
Цветовое пространство                    : YUV
Субдискретизация насыщенности            : 4:2:0
Битовая глубина                          : 8 бит
Тип развёртки                            : Прогрессивная
Метод сжатия                             : С потерями
Бит/(Пиксели*Кадры)                      : 0.253
Размер потока                            : 1,29 Гбайт (94%)
Библиотека кодирования                   : XviD 1.2.1 (UTC 2008-12-04)

Аудио
Идентификатор                            : 1
Формат                                   : MPEG Audio
Версия формата                           : Version 1
Профиль формата                          : Layer 3
Режим                                    : Joint stereo
Расширение режима                        : MS Stereo
Идентификатор кодека                     : 55
Идентификатор кодека/Подсказка           : MP3
Продолжительность                        : 1 ч. 24 м.
Вид битрейта                             : Постоянный
Битрейт                                  : 128 Кбит/сек
Каналы                                   : 2 канала
Частота                                  : 48,0 КГц
Метод сжатия                             : С потерями
Размер потока                            : 77,0 Мбайт (6%)
Выравнивание                             : Соединение по промежуткам
Продолжительность промежутка             : 33  мс. (1,00 видеокадр)
Время предзагрузки промежутка            : 504  мс.
Перевод: r123
Озвучивание: Павел Морозов aka PashaUp
Релиз от:
picpicpicpicpic
Для увеличения картинки щелкните мышкой по превью

Этот торрент недоступен для скачивания без регистрации, однако доступен по публичной magnet-ссылке (источники с публичных трекеров). Перед использованием ссылки прочтите, пожалуйста Пользовательское соглашение, а также как можно дольше оставайтесь на раздаче! Для того, чтобы скачать сам торрент-файл (который видит больше источников), а также для того, чтобы поблагодарить релизера, вам необходимо зарегистрироваться. Если регистрироваться лень - вы можете также попробовать скачать релиз по нашим партнерским ссылкам ниже.

[underverse.su].t63282.torrent
Трекер: Зарегистрирован   [ 18.02.2016 14:48 ]  

Статус: проверено (by makkol at 18.02.2016 23:29)
Поблагодарили: пока никто не поблагодарил...
Тип торрента: публичный - доступные источники с открытых трекеров: 
Размер: 1,37 GB (занимает 0,31 DVDR, для записи нужно 1 болванка DVDR/RW)
 
 
Похожие темы
Форум Тема Автор Торрент Отв. Посл. сооб.
Popular feature films Мальчик и пираты / The Boy and the Pirates (Берт А. Гордон) [1960 г., фэнтези, приключения, семейный, DVDRip] Original (Eng) + Subs (Rus, Eng) makkol
0 | 0

0 | 388

2

09.02.2016 13:27


Яндекс.Метрика powered by Sphinx


В Н И М А Н И Е
Сайт не распространяет и не хранит электронные версии произведений, а лишь бесплатно и без коммерческой выгоды (не требуя взамен платы,
SMS и т.д.) предоставляет доступ к создаваемому пользователями каталогу ссылок на торрент-файлы, которые содержат только списки хеш-сумм.
Убедительная просьба с жалобами обращаться напрямую к пользователю, разместившему торрент файл.

Вверх