Loading...
Error

Никс и Кукры [1998 г., документальный, история, биография, искусство, TVRip]

Статистика раздачи
Размер:  540 MB   |    Зарегистрирован:  9 месяцев   |    Скачан:  4 раза

Полного источника не было: 7 месяцев

Сидов:  0  |  0 KB/s  ]   Личеров:  0  |  0 KB/s  ]

* - сиды/пиры с внешних источников

   
 
Автор Сообщение

ARI71 Пол:Муж

18-Фев-2016 14:02

Никс и Кукры


Год выпуска: 1998
Жанр: документальный, история, биография, искусство
Страна: Россия, ООО студия "Золотая лента"
Режиссер: Евгения Головня
Сюжет фильма:
Куприянов, Крылов, Николай Соколов - творческий коллектив Кукрыниксы. Три художника работали методом коллективного творчества (каждый также работал и индивидуально — над портретами и пейзажами). Это имя - Кукрыниксы - знал весь Советский Союз. Политические шаржи, карикатуры, плакаты, окна ТАСС - никто и ни что не оставалось незамеченным, все самые важные социально-политические вопросы брались художниками на карандаш.

Кукрыниксы — творческий коллектив советских художников-графиков и живописцев, в который входили действительные члены АХ СССР (1947), народные художники СССР (1958), Герои Социалистического Труда Михаил Куприянов (1903—1991), Порфирий Крылов (1902—1990) и Николай Соколов (1903—2000).
Качество видео: TVRip

Продолжительность: 00:39:00
Формат: AVI
Видео: DivX, 704x528, ~1798 kbps
Аудио: русский, оригинал, MP3 2.0, ~128.00 kbps

Код:

Общее
Полное имя : D:\Niks.I.Kukry.1998.TVRip.avi
Формат : AVI
Формат/Информация : Audio Video Interleave
Размер файла : 540 Мбайт
Продолжительность : 39 м.
Общий поток : 1936 Кбит/сек
Библиотека кодирования : VirtualDub build 28292/release

Видео
Идентификатор : 0
Формат : MPEG-4 Visual
Параметр BVOP формата : Нет
Параметр QPel формата : Нет
Параметр GMC формата : Без точки перехода
Параметр матрицы формата : Default (H.263)
Идентификатор кодека : DX50
Идентификатор кодека/Подсказка : DivX 5
Продолжительность : 39 м.
Битрейт : 1798 Кбит/сек
Ширина : 704 пикселя
Высота : 528 пикселей
Соотношение сторон : 4:3
Частота кадров : 25,000 кадров/сек
Цветовое пространство : YUV
Субдискретизация насыщенности : 4:2:0
Битовая глубина : 8 бит
Тип развёртки : Прогрессивная
Метод сжатия : С потерями
Бит/(Пиксели*Кадры) : 0.194
Размер потока : 502 Мбайт (93%)
Библиотека кодирования : DivX 5.2.1 (DrDivX 106) (UTC 2004-09-08)

Аудио
Идентификатор : 1
Формат : MPEG Audio
Версия формата : Version 1
Профиль формата : Layer 3
Режим : Joint stereo
Расширение режима : MS Stereo
Идентификатор кодека : 55
Идентификатор кодека/Подсказка : MP3
Продолжительность : 39 м.
Вид битрейта : Постоянный
Битрейт : 128 Кбит/сек
Каналы : 2 канала
Частота : 48,0 КГц
Метод сжатия : С потерями
Размер потока : 35,7 Мбайт (7%)
Выравнивание : Разделение по промежуткам
Продолжительность промежутка : 40 мс. (1,00 видеокадр)
Время предзагрузки промежутка : 500 мс.
Релиз группы:














Этот торрент недоступен для скачивания без регистрации, однако доступен по публичной magnet-ссылке (источники с публичных трекеров). Перед использованием ссылки прочтите, пожалуйста Пользовательское соглашение, а также как можно дольше оставайтесь на раздаче! Для того, чтобы скачать сам торрент-файл (который видит больше источников), а также для того, чтобы поблагодарить релизера, вам необходимо зарегистрироваться. Если регистрироваться лень - вы можете также попробовать скачать релиз по нашим партнерским ссылкам ниже.

[underverse.su].t63281.torrent
Трекер: Зарегистрирован   [ 18.02.2016 14:02 ]  

Статус: проверено (by makkol at 18.02.2016 14:39)
Поблагодарили: пока никто не поблагодарил...
Тип торрента: публичный - доступные источники с открытых трекеров: 
Размер: 540 MB (занимает 0,12 DVDR, для записи нужно 1 болванка DVDR/RW)
 
 

Яндекс.Метрика powered by Sphinx


В Н И М А Н И Е
Сайт не распространяет и не хранит электронные версии произведений, а лишь бесплатно и без коммерческой выгоды (не требуя взамен платы,
SMS и т.д.) предоставляет доступ к создаваемому пользователями каталогу ссылок на торрент-файлы, которые содержат только списки хеш-сумм.
Убедительная просьба с жалобами обращаться напрямую к пользователю, разместившему торрент файл.

Вверх