Loading...
Error

Тигр в бегах / Tiger On The Run [2015 г., документальный, природа, флора, фауна, HDTVRip] Dub

Статистика раздачи
Размер:  556 MB   |    Зарегистрирован:  9 месяцев   |    Скачан:  3 раза

Полного источника не было: 1 месяц 7 дней

Сидов:  0  |  0 KB/s  ]   Личеров:  0  |  0 KB/s  ]

* - сиды/пиры с внешних источников

   
 
Автор Сообщение

ARI71 Пол:Муж

18-Фев-2016 13:15

Тигр в бегах / Tiger On The Run


Год выпуска: 2015
Жанр: документальный, природа, флора, фауна
Страна: США, National Geographic Channels
Режиссер: Бенджамин Джи Хувет
Сюжет фильма:
В Индии находится более 40 заповедников, где обитают тигры, и наша история берёт начало в самом сердце тигриного царства. В этом рассказе о взрослении мы пойдём по следам Кумала — молодого тигра, изгнанного с территории своего отца бродячим тигром по имени Хан. Кумал находится в бегах и должен найти свою собственную территорию и пару, чтобы продолжить свой род. Но из-за конкуренции со стороны людей, претендующих на эту богатую ресурсами землю в центральной части Индии, времени и места для Кумала остаётся всё меньше. Деревенские жители принимают его за Хана и прогоняют с огнём со своих земель. Более тысячи голов крупного рогатого скота было убито тиграми за последний год на границах резерваций, и деревенским жителям это окончательно надоело. Впервые оказавшись в полном одиночестве, Кумал должен выживать, преодолевая свою неопытность и неумение охотиться. Однако, в конце концов, он достигает оазиса в лесу, где сталкивается с Латикой — тигрицей, которая может обеспечить ему будущее.
Качество видео: HDTVRip

Продолжительность: 00:43:59
Формат: AVI
Видео: XviD, 720x400, ~1566 kbps
Аудио: русский, дублированный, AC3 2.0, ~192.00 kbps
Фильм переведен и озвучен студией "Велес"
Текст читает Борис Хасанов
-----------------------------------------
Документальный дубляж:
Голос рассказчика - полный дубляж
Интервью - слышна оригинальная речь

Код:

Общее
Полное имя : D:\Tigr.V.Begah.2015.XviD.HDTVRip.by.GeneralFilm.avi
Формат : AVI
Формат/Информация : Audio Video Interleave
Размер файла : 556 Мбайт
Продолжительность : 43 м.
Общий поток : 1768 Кбит/сек
Программа кодирования : VirtualDubMod 1.5.10.3 | www.virtualdub-fr.org || (build 2550/release)
Библиотека кодирования : VirtualDubMod build 2550/release

Видео
Идентификатор : 0
Формат : MPEG-4 Visual
Профиль формата : Advanced Simple@L5
Параметр BVOP формата : 1
Параметр QPel формата : Нет
Параметр GMC формата : Без точки перехода
Параметр матрицы формата : Выборочная
Идентификатор кодека : XVID
Идентификатор кодека/Подсказка : XviD
Продолжительность : 43 м.
Битрейт : 1566 Кбит/сек
Ширина : 720 пикселей
Высота : 400 пикселей
Соотношение сторон : 16:9
Частота кадров : 25,000 кадров/сек
Цветовое пространство : YUV
Субдискретизация насыщенности : 4:2:0
Битовая глубина : 8 бит
Тип развёртки : Прогрессивная
Метод сжатия : С потерями
Бит/(Пиксели*Кадры) : 0.218
Размер потока : 493 Мбайт (89%)
Библиотека кодирования : XviD 73

Аудио
Идентификатор : 1
Формат : AC-3
Формат/Информация : Audio Coding 3
Расширение режима : CM (complete main)
Параметр Endianness формата : Big
Идентификатор кодека : 2000
Продолжительность : 43 м.
Вид битрейта : Постоянный
Битрейт : 192 Кбит/сек
Каналы : 2 канала
Расположение каналов : Front: L R
Частота : 48,0 КГц
Метод сжатия : С потерями
Размер потока : 60,4 Мбайт (11%)
Выравнивание : Разделение по промежуткам
Продолжительность промежутка : 40 мс. (1,00 видеокадр)
Время предзагрузки промежутка : 500 мс.
Релиз группы:

picpicpicpic
Для увеличения картинки щелкните мышкой по превью

Этот торрент недоступен для скачивания без регистрации, однако доступен по публичной magnet-ссылке (источники с публичных трекеров). Перед использованием ссылки прочтите, пожалуйста Пользовательское соглашение, а также как можно дольше оставайтесь на раздаче! Для того, чтобы скачать сам торрент-файл (который видит больше источников), а также для того, чтобы поблагодарить релизера, вам необходимо зарегистрироваться. Если регистрироваться лень - вы можете также попробовать скачать релиз по нашим партнерским ссылкам ниже.

[underverse.su].t63280.torrent
Трекер: Зарегистрирован   [ 18.02.2016 13:15 ]  

Статус: проверено (by makkol at 18.02.2016 13:24)
Поблагодарили: пока никто не поблагодарил...
Тип торрента: публичный - доступные источники с открытых трекеров: 
Размер: 556 MB (занимает 0,12 DVDR, для записи нужно 1 болванка DVDR/RW)
 
 

Яндекс.Метрика powered by Sphinx


В Н И М А Н И Е
Сайт не распространяет и не хранит электронные версии произведений, а лишь бесплатно и без коммерческой выгоды (не требуя взамен платы,
SMS и т.д.) предоставляет доступ к создаваемому пользователями каталогу ссылок на торрент-файлы, которые содержат только списки хеш-сумм.
Убедительная просьба с жалобами обращаться напрямую к пользователю, разместившему торрент файл.

Вверх