Loading...
Error

Пазл / Pazuru (Ейсуке Наито) [2014 г., ужасы, триллер, DVDRip] MVO

Статистика раздачи
Размер:  747 MB   |    Зарегистрирован:  9 месяцев   |    Скачан:  4 раза

Полного источника не было: 12 дней

Сидов:  0  |  0 KB/s  ]   Личеров:  0  |  0 KB/s  ]

* - сиды/пиры с внешних источников

   
 
Автор Сообщение

makkol Пол:Муж

16-Фев-2016 23:17

Пазл / Pazuru


Год выпуска: 2014
Жанр: ужасы, триллер
Производство: Япония [Kadokawa, Pony Canyon, Dentsu]
Режиссер: Ейсуке Наито
В ролях: Кахо, Шухей Номура, Кадзуя Такахаси, Kokone Sasaki, Рйюзо Танака, Баку Овада, Фумика Баба, Рё Саеки, Кеисуке Томита, Кай Ватанабэ
Сюжет фильма:
История о ученице средней школы Накамура Азузе, спрыгнувшей с крыши школы. Девушка выжила. Спустя месяц после этого в школе появилась группа людей, носящих причудливые маски. Азузе приходится отгадывать загадки, которые в конверте вручает ей одноклассник Шигео. Девушка позднее понимает, что загадки являются ключом в этом инциденте. Азуза напугана, особенно после того, как они с Шигео видели что-то, что невозможно даже представить…

  • Мировая премьера: 8 марта 2014


Качество видео: DVDRip

Продолжительность: 01:25:47
Формат: AVI
Видео: XviD, 688x288 (2.40:1), 23.976 fps, 1081 kbps
Аудио: русский, любительский многоголосый закадровый, MP3 2.0, 48 kHz, 128 kbps

Код:

Общее
Формат : AVI
Формат/Информация : Audio Video Interleave
Размер файла : 747 Мбайт
Продолжительность : 1 ч. 25 м.
Общий поток : 1218 Кбит/сек
Программа кодирования : VirtualDubMod 1.5.10.3 | www.virtualdub-fr.org || (build 2550/release)
Библиотека кодирования : VirtualDubMod build 2550/release

Видео
Идентификатор : 0
Формат : MPEG-4 Visual
Профиль формата : Advanced Simple@L5
Параметр BVOP формата : 2
Параметр QPel формата : Нет
Параметр GMC формата : Без точки перехода
Параметр матрицы формата : Default (MPEG)
Идентификатор кодека : XVID
Идентификатор кодека/Подсказка : XviD
Продолжительность : 1 ч. 25 м.
Битрейт : 1081 Кбит/сек
Ширина : 688 пикселей
Высота : 288 пикселей
Соотношение сторон : 2,40:1
Частота кадров : 23,976 кадра/сек
Цветовое пространство : YUV
Субдискретизация насыщенности : 4:2:0
Битовая глубина : 8 бит
Тип развёртки : Прогрессивная
Метод сжатия : С потерями
Бит/(Пиксели*Кадры) : 0.228
Размер потока : 663 Мбайт (89%)
Библиотека кодирования : XviD 1.2.1 (UTC 2008-12-04)

Аудио
Идентификатор : 1
Формат : MPEG Audio
Версия формата : Version 1
Профиль формата : Layer 3
Идентификатор кодека : 55
Идентификатор кодека/Подсказка : MP3
Продолжительность : 1 ч. 25 м.
Вид битрейта : Постоянный
Битрейт : 128 Кбит/сек
Каналы : 2 канала
Частота : 48,0 КГц
Метод сжатия : С потерями
Размер потока : 78,5 Мбайт (11%)
Выравнивание : Соединение по промежуткам
Продолжительность промежутка : 42 мс. (1,00 видеокадр)
Время предзагрузки промежутка : 504 мс.
Библиотека кодирования : LAME3.99r
Настройки программы : -m s -V 4 -q 2 -lowpass 17 -b 128
Перевод: akira9
Озвучивание: den904, Izanami & DeadSno
Релиз:
picpicpicpicpic
Для увеличения картинки щелкните мышкой по превью

Этот торрент недоступен для скачивания без регистрации, однако доступен по публичной magnet-ссылке (источники с публичных трекеров). Перед использованием ссылки прочтите, пожалуйста Пользовательское соглашение, а также как можно дольше оставайтесь на раздаче! Для того, чтобы скачать сам торрент-файл (который видит больше источников), а также для того, чтобы поблагодарить релизера, вам необходимо зарегистрироваться. Если регистрироваться лень - вы можете также попробовать скачать релиз по нашим партнерским ссылкам ниже.

[underverse.su].t63214.torrent
Трекер: Зарегистрирован   [ 16.02.2016 23:17 ]  

Статус: проверено (by makkol at 17.02.2016 00:03)
Поблагодарили: пока никто не поблагодарил...
Тип торрента: публичный - доступные источники с открытых трекеров: 
Размер: 747 MB (занимает 0,17 DVDR, для записи нужно 1 болванка DVDR/RW)
 
 

Яндекс.Метрика powered by Sphinx


В Н И М А Н И Е
Сайт не распространяет и не хранит электронные версии произведений, а лишь бесплатно и без коммерческой выгоды (не требуя взамен платы,
SMS и т.д.) предоставляет доступ к создаваемому пользователями каталогу ссылок на торрент-файлы, которые содержат только списки хеш-сумм.
Убедительная просьба с жалобами обращаться напрямую к пользователю, разместившему торрент файл.

Вверх