Loading...
Error

Комната / Room (Леонард Абрахамсон) [2015 г., драма, WEB-DLRip] MVO

Статистика раздачи
Размер:  1,37 GB   |    Зарегистрирован:  9 месяцев   |    Скачан:  8 раз

Полного источника не было: 6 дней

Сидов:  0  |  0 KB/s  ]   Личеров:  0  |  0 KB/s  ]

* - сиды/пиры с внешних источников

   
 
Автор Сообщение

makkol Пол:Муж

16-Фев-2016 15:31

Комната / Room


Год выпуска: 2015
Жанр: драма
Производство: Ирландия , Канада [A24, Element Pictures, No Trace Camping]
Режиссер: Леонард Абрахамсон
В ролях: Бри Ларсон, Джейкоб Тремблэ, Шон Бриджерс, Венди Крюсон, Сэнди МакМастер, Мэтт Гордон, Аманда Бругел, Джо Пинг, Джоан Аллен, Заррин Дарнелл-Мартин
Сюжет фильма:
Девушку по имени Ма похитили, когда она была еще подростком. С тех пор бедняга живет в крохотной комнатке вместе со своим 5-летним сыном Джеком. Мальчик при этом ничего кроме этой комнаты не видел, он в ней родился и ни разу ее не покидал.

Экранизация романа Эммы Донохью, писательницы с ирландскими корнями, живущей в Канаде.

  • Мировая премьера: 4 сентября 2015


Качество видео: WEB-DLRip

Продолжительность: 01:57:43
Формат: AVI
Видео: XviD, 720x304 (2.35:1), 23.976 fps, 1460 kbps
Аудио: русский, любительский многоголосый закадровый (Parovoz Production), AC3 2.0, 48 kHz, 192 kbps

Код:

Общее
Формат                                   : AVI
Формат/Информация                        : Audio Video Interleave
Размер файла                             : 1,37 Гбайт
Продолжительность                        : 1 ч. 57 м.
Общий поток                              : 1662 Кбит/сек
Программа кодирования                    : VirtualDubModRus 1.5.10.2 (build 2542/release)
Библиотека кодирования                   : VirtualDubMod build 2542/release

Видео
Идентификатор                            : 0
Формат                                   : MPEG-4 Visual
Профиль формата                          : Advanced Simple@L5
Параметр BVOP формата                    : 2
Параметр QPel формата                    : Нет
Параметр GMC формата                     : Без точки перехода
Параметр матрицы формата                 : Default (MPEG)
Идентификатор кодека                     : XVID
Идентификатор кодека/Подсказка           : XviD
Продолжительность                        : 1 ч. 57 м.
Битрейт                                  : 1460 Кбит/сек
Ширина                                   : 720 пикселей
Высота                                   : 304 пикселя
Соотношение сторон                       : 2,35:1
Частота кадров                           : 23,976 кадра/сек
Цветовое пространство                    : YUV
Субдискретизация насыщенности            : 4:2:0
Битовая глубина                          : 8 бит
Тип развёртки                            : Прогрессивная
Метод сжатия                             : С потерями
Бит/(Пиксели*Кадры)                      : 0.278
Размер потока                            : 1,20 Гбайт (88%)
Библиотека кодирования                   : XviD 1.2.1 (UTC 2008-12-04)

Аудио
Идентификатор                            : 1
Формат                                   : AC-3
Формат/Информация                        : Audio Coding 3
Расширение режима                        : CM (complete main)
Параметр Endianness формата              : Big
Идентификатор кодека                     : 2000
Продолжительность                        : 1 ч. 57 м.
Вид битрейта                             : Постоянный
Битрейт                                  : 192 Кбит/сек
Каналы                                   : 2 канала
Расположение каналов                     : Front: L R
Частота                                  : 48,0 КГц
Метод сжатия                             : С потерями
Размер потока                            : 161 Мбайт (12%)
Выравнивание                             : Разделение по промежуткам
Продолжительность промежутка             : 42  мс. (1,00 видеокадр)
Время предзагрузки промежутка            : 500  мс.
Внимание! Присутствуют вставки голосовой рекламы


picpicpicpicpic
Для увеличения картинки щелкните мышкой по превью

Этот торрент недоступен для скачивания без регистрации, однако доступен по публичной magnet-ссылке (источники с публичных трекеров). Перед использованием ссылки прочтите, пожалуйста Пользовательское соглашение, а также как можно дольше оставайтесь на раздаче! Для того, чтобы скачать сам торрент-файл (который видит больше источников), а также для того, чтобы поблагодарить релизера, вам необходимо зарегистрироваться. Если регистрироваться лень - вы можете также попробовать скачать релиз по нашим партнерским ссылкам ниже.

[underverse.su].t63185.torrent
Трекер: Зарегистрирован   [ 16.02.2016 15:31 ]  

Статус: проверено (by makkol at 16.02.2016 23:57)
Поблагодарили: пока никто не поблагодарил...
Тип торрента: публичный - доступные источники с открытых трекеров: 
Размер: 1,37 GB (занимает 0,31 DVDR, для записи нужно 1 болванка DVDR/RW)
 
 
Похожие темы
Форум Тема Автор Торрент Отв. Посл. сооб.
Зарубежное кино [DVDRip, Low-Res HDRip, и т.д.] Комната / Room (Леонард Абрахамсон / Lenny Abrahamson) [2015 г., драма, HDRip] AVO (Матвеев) 90ytr90
158 | 2

0 | 226

1

19.11.2016 05:38

T Зарубежное кино [DVDRip, Low-Res HDRip, и т.д.] Комната / Room (Леонард Абрахамсон / Lenny Abrahamson) [2015 г., драма, HDRip] MVO (Paradox & Omskbird records) 90ytr90
52 | 1

0 | 220

4

12.11.2016 05:27

Зарубежное кино [DVDRip, Low-Res HDRip, и т.д.] Комната / Room (Леонард Абрахамсон) [2015 г., драма, WEB-DLRip] MVO + Original makkol
14 | 0

0 | 241

1

16.02.2016 15:42

Зарубежное кино [DVDRip, Low-Res HDRip, и т.д.] Комната / Room (Леонард Абрахамсон / Lenny Abrahamson) [2015 г., драма, BDRip-AVC] AVO (Матвеев, без цензуры) 90ytr90
108 | 2

0 | 616

0

18.02.2016 18:53

Зарубежное кино [DVDRip, Low-Res HDRip, и т.д.] Комната / Room (Леонард Абрахамсон / Lenny Abrahamson) [2015 г., драма, BDRip] DVO (Parovoz Production) + AVO (Матвеев, без цензуры) 90ytr90
45 | 2

0 | 418

4

20.02.2016 13:35

Зарубежное кино [HDDVDRip / BDRip / WEB-DL / HDTV 1080/720р] Комната / Room (Леонард Абрахамсон / Lenny Abrahamson) [2015 г., драма, BDRip 1080p] AVO (Матвеев) + MVO (Ukr) + Original (Eng) + Sub (Rus, Eng) 90ytr90
39 | 2

0 | 212

1

19.11.2016 06:11

Зарубежное кино [HDDVDRip / BDRip / WEB-DL / HDTV 1080/720р] Комната / Room (Леонард Абрахамсон / Lenny Abrahamson) [2015 г., драма, BDRip 720p] AVO (Матвеев, цензурный) + Original (Eng) + Sub (Rus, Eng) 90ytr90
61 | 1

0 | 202

2

19.11.2016 05:56

Зарубежное кино [HDDVDRip / BDRip / WEB-DL / HDTV 1080/720р] Комната / Room (Леонард Абрахамсон) [2015 г., драма, WEB-DL 1080p] MVO + Original + Subs makkol
16 | 0

0 | 756

4

16.02.2016 15:49

Зарубежное кино [HDDVDRip / BDRip / WEB-DL / HDTV 1080/720р] Комната / Room (Леонард Абрахамсон / Lenny Abrahamson) [2015 г., драма, BDRip 720p] AVO (Матвеев, без цензуры) + Original (Eng) + Commentary + Sub (Rus, Eng) 90ytr90
20 | 0

0 | 422

5

20.02.2016 15:37

Зарубежное кино [HDDVDRip / BDRip / WEB-DL / HDTV 1080/720р] Комната / Room (Леонард Абрахамсон / Lenny Abrahamson) [2015 г., драма, BDRip 720p] AVO (Матвеев, цензурный) + Original (Eng) + Sub (Rus, Eng) 90ytr90
26 | 0

0 | 399

7

21.02.2016 09:10


Яндекс.Метрика powered by Sphinx


В Н И М А Н И Е
Сайт не распространяет и не хранит электронные версии произведений, а лишь бесплатно и без коммерческой выгоды (не требуя взамен платы,
SMS и т.д.) предоставляет доступ к создаваемому пользователями каталогу ссылок на торрент-файлы, которые содержат только списки хеш-сумм.
Убедительная просьба с жалобами обращаться напрямую к пользователю, разместившему торрент файл.

Вверх