Loading...
Error

Братья Львиное сердце / Broderna Lejonhjarta (Олле Хеллбом) [1977 г., приключения, сказка, семейный, DVDRip] MVO + Original

Статистика раздачи
Размер:  1,37 GB   |    Зарегистрирован:  9 месяцев   |    Скачан:  2 раза

Полного источника не было: 4 месяца 1 день

Сидов:  0  |  0 KB/s  ]   Личеров:  0  |  0 KB/s  ]

* - сиды/пиры с внешних источников

   
 
Автор Сообщение

makkol Пол:Муж

16-Фев-2016 15:03

Братья Львиное сердце / Bröderna Lejonhjärta


Год выпуска: 1977
Жанр: приключения, сказка, семейный
Страна: Швеция , Исландия [Artfilm, Svensk Filmindustri (SF) AB]
Режиссер: Олле Хеллбом
В ролях: Стэффан Готесмам, Ларс Сёдердал, Аллан Эдвалль, Гунн Волльгрен, Фольке Йорт, Пер Оскарссон, Томми Джонсон, Жан Нюгрен, Миша Габэй, Бертиль Норстрём, Матс Андерссон, Ульф Хакан Янссон, Бодил Линдорфф, Лоне Роуд, Эрно Мюллер, Пер-Аксель Аросениус, Бйорн Страндт, Ларс Нюберг, Николас Барнс, Стивен Гарлик
Сюжет фильма:
Замечательно снятая сказка по книге Астрид Линдгрен. Что ждёт нас после завершения жизни? Пустота? Облака и арфы? Реинкарнация в бабочку? А может - новый, удивительный мир, наполненный красками, беседами у тёплого костра и приключениями, о которых не смеешь и мечтать? Девятилетний Карл Лейон по прозвищу Сухарик болеет туберкулезом и знает, что вскоре умрет. Его старший брат Юнатан пытается его как-то утешить и обещает, что однажды они встретятся в волшебной стране Нангияле. Неожиданно Юнатан погибает при пожаре. Вскоре умирает и Сухарик. Они встречаются в Нангияле...

  • Мировая премьера: 23 сентября 1977


Качество видео: DVDRip

Продолжительность: 01:41:53
Формат: AVI
Видео: XviD, 720x400 (16:9), 25.000 fps, 1526 kbps
Аудио #1: русский, профессиональный многоголосый закадровый, AC3 2.0, 48 kHz, 192 kbps
Аудио #2: шведский, оригинал, AC3 2.0, 48 kHz, 192 kbps

Код:

General
Format : AVI
Format/Info : Audio Video Interleave
File size : 1.37 GiB
Duration : 1h 41mn
Overall bit rate : 1 926 Kbps
Writing application : VirtualDubMod 1.5.10.2 (build 2540/release)
Writing library : VirtualDubMod build 2540/release
Video #0
ID : 0
Format : MPEG-4 Visual
Format profile : AdvancedSimple@L5
Format settings, BVOP : Yes
Format settings, QPel : No
Format settings, GMC : No warppoints
Format settings, Matrix : Default (H.263)
Muxing mode : Packed bitstream
Codec ID : XVID
Codec ID/Hint : XviD
Duration : 1h 41mn
Bit rate : 1 527 Kbps
Width : 720 pixels
Height : 400 pixels
Display aspect ratio : 16:9
Frame rate : 25.000 fps
Resolution : 24 bits
Colorimetry : 4:2:0
Scan type : Progressive
Bits/(Pixel*Frame) : 0.212
Stream size : 1.09 GiB (79%)
Writing library : XviD 1.2.1 (UTC 2008-12-04)
Audio #1
ID : 1
Format : AC-3
Format/Info : Audio Coding 3
Codec ID : 2000
Duration : 1h 41mn
Bit rate mode : Constant
Bit rate : 192 Kbps
Channel(s) : 2 channels
Channel positions : L R
Sampling rate : 48.0 KHz
Stream size : 140 MiB (10%)
Alignment : Split accross interleaves
Interleave, duration : 40 ms (1.00 video frame)
Interleave, preload duration : 500 ms
Title : Russian
Audio #2
ID : 2
Format : AC-3
Format/Info : Audio Coding 3
Codec ID : 2000
Duration : 1h 41mn
Bit rate mode : Constant
Bit rate : 192 Kbps
Channel(s) : 2 channels
Channel positions : L R
Sampling rate : 48.0 KHz
Stream size : 140 MiB (10%)
Alignment : Split accross interleaves
Interleave, duration : 40 ms (1.00 video frame)
Interleave, preload duration : 500 ms
Title : Swedish
picpicpicpicpic
Для увеличения картинки щелкните мышкой по превью

Этот торрент недоступен для скачивания без регистрации, однако доступен по публичной magnet-ссылке (источники с публичных трекеров). Перед использованием ссылки прочтите, пожалуйста Пользовательское соглашение, а также как можно дольше оставайтесь на раздаче! Для того, чтобы скачать сам торрент-файл (который видит больше источников), а также для того, чтобы поблагодарить релизера, вам необходимо зарегистрироваться. Если регистрироваться лень - вы можете также попробовать скачать релиз по нашим партнерским ссылкам ниже.

[underverse.su].t63183.torrent
Трекер: Зарегистрирован   [ 16.02.2016 15:03 ]  

Статус: проверено (by makkol at 16.02.2016 23:56)
Поблагодарили: пока никто не поблагодарил...
Тип торрента: публичный - доступные источники с открытых трекеров: 
Размер: 1,37 GB (занимает 0,31 DVDR, для записи нужно 1 болванка DVDR/RW)
 
 

Яндекс.Метрика powered by Sphinx


В Н И М А Н И Е
Сайт не распространяет и не хранит электронные версии произведений, а лишь бесплатно и без коммерческой выгоды (не требуя взамен платы,
SMS и т.д.) предоставляет доступ к создаваемому пользователями каталогу ссылок на торрент-файлы, которые содержат только списки хеш-сумм.
Убедительная просьба с жалобами обращаться напрямую к пользователю, разместившему торрент файл.

Вверх