Loading...
Error

Вилли Токарев - Вот я стал богатый сэр и приехал в ЭСЭСЭР [1990 г., документально-музыкальный, биография, VHSRip]

Статистика раздачи
Размер:  1,37 GB   |    Зарегистрирован:  9 месяцев   |    Скачан:  3 раза

Полного источника не было: 5 месяцев 1 день

Сидов:  0  |  0 KB/s  ]   Личеров:  0  |  0 KB/s  ]

* - сиды/пиры с внешних источников

   
 
Автор Сообщение

ARI71 Пол:Муж

16-Фев-2016 10:20

Вилли Токарев - Вот я стал богатый сэр и приехал в ЭСЭСЭР


Год выпуска: 1990
Жанр: документально-музыкальный, биография
Страна: СССР
Режиссер: Юрий Горковенко
В ролях: Вилли Токарев
Сюжет фильма:
В 1989 году Вилли приехал в СССР с программой сольных концертов. Посетив за время своего турне 70 городов, Вилли обрел бешеный успех и популярность у русской публики. Примерно в тоже время Вилли принял участие в съемках фильма ''Вот я стал богатый сэр и приехал в СССР''. А в 1993 году в США вышла книга А. Тульчинского ''Все о Вилли''.

Доп. информация: Ви́лли То́карев (полное имя — Виле́н Ива́нович То́карев; 11 ноября 1934, хутор Чернышёв, Шовгеновский район, Адыгейская автономная область, Северо-Кавказский край) — советский, американский и российский певец и автор-исполнитель. В 1974 году эмигрировал из СССР в США, потом вернулся в Россию.
В 2005 году Вилли Токарев переехал в Москву и стал жить на Котельнической набережной. Здесь же открыл свою студию звукозаписи.
Качество видео: VHSRip

Продолжительность: 01:05:55
Формат: AVI
Видео: DivX, 688x512, ~2702 kbps
Аудио: русский, оригинал, AC3 2.0, ~256.00 kbps

Код:

Общее
Полное имя : D:\Токарев Вот я стал богатый сэр i.priehal.v.SSSR 1990 DivX VHSRip.avi
Формат : AVI
Формат/Информация : Audio Video Interleave
Размер файла : 1,37 Гбайт
Продолжительность : 1 ч. 5 м.
Общий поток : 2968 Кбит/сек
Программа кодирования : FairUse Wizard - http://fairusewizard.com
Библиотека кодирования : The best and REALLY easy backup tool

Видео
Идентификатор : 0
Формат : MPEG-4 Visual
Параметр BVOP формата : Нет
Параметр QPel формата : Нет
Параметр GMC формата : Без точки перехода
Параметр матрицы формата : Default (H.263)
Идентификатор кодека : DX50
Идентификатор кодека/Подсказка : DivX 5
Продолжительность : 1 ч. 5 м.
Битрейт : 2702 Кбит/сек
Ширина : 688 пикселей
Высота : 512 пикселей
Соотношение сторон : 4:3
Частота кадров : 25,000 кадров/сек
Цветовое пространство : YUV
Субдискретизация насыщенности : 4:2:0
Битовая глубина : 8 бит
Тип развёртки : Прогрессивная
Метод сжатия : С потерями
Бит/(Пиксели*Кадры) : 0.307
Размер потока : 1,24 Гбайт (91%)
Библиотека кодирования : DivX 5.2.1 (DrDivX 106) (UTC 2004-09-08)

Аудио
Идентификатор : 1
Формат : AC-3
Формат/Информация : Audio Coding 3
Расширение режима : CM (complete main)
Параметр Endianness формата : Big
Идентификатор кодека : 2000
Продолжительность : 1 ч. 5 м.
Вид битрейта : Постоянный
Битрейт : 256 Кбит/сек
Каналы : 2 канала
Расположение каналов : Front: L R
Частота : 48,0 КГц
Метод сжатия : С потерями
Размер потока : 121 Мбайт (9%)
Выравнивание : Разделение по промежуткам
Продолжительность промежутка : 40 мс. (1,00 видеокадр)
Время предзагрузки промежутка : 500 мс.
picpicpicpic
Для увеличения картинки щелкните мышкой по превью

Этот торрент недоступен для скачивания без регистрации, однако доступен по публичной magnet-ссылке (источники с публичных трекеров). Перед использованием ссылки прочтите, пожалуйста Пользовательское соглашение, а также как можно дольше оставайтесь на раздаче! Для того, чтобы скачать сам торрент-файл (который видит больше источников), а также для того, чтобы поблагодарить релизера, вам необходимо зарегистрироваться. Если регистрироваться лень - вы можете также попробовать скачать релиз по нашим партнерским ссылкам ниже.

[underverse.su].t63176.torrent
Трекер: Зарегистрирован   [ 16.02.2016 10:20 ]  

Статус: проверено (by makkol at 16.02.2016 22:09)
Поблагодарили: пока никто не поблагодарил...
Тип торрента: публичный - доступные источники с открытых трекеров: 
Размер: 1,37 GB (занимает 0,31 DVDR, для записи нужно 1 болванка DVDR/RW)
 
 

ARI71 Пол:Муж

24-Фев-2016 19:27

Убедительная просьба к скачавшим: Пож-та оставайтесь как можно дольше на раздаче! Это даёт возможность релизёру создавать для вас новые релизы. Спасибо за понимание!

Яндекс.Метрика powered by Sphinx


В Н И М А Н И Е
Сайт не распространяет и не хранит электронные версии произведений, а лишь бесплатно и без коммерческой выгоды (не требуя взамен платы,
SMS и т.д.) предоставляет доступ к создаваемому пользователями каталогу ссылок на торрент-файлы, которые содержат только списки хеш-сумм.
Убедительная просьба с жалобами обращаться напрямую к пользователю, разместившему торрент файл.

Вверх