Loading...
Error

Смерть в кремлевском кабинете [2009 г., документальный, биография, история, расследование, SatRip]

Статистика раздачи
Размер:  514 MB   |    Зарегистрирован:  9 месяцев   |    Скачан:  7 раз

Полного источника не было: 3 месяца 15 дней

Сидов:  0  |  0 KB/s  ]   Личеров:  0  |  0 KB/s  ]

* - сиды/пиры с внешних источников

   
 
Автор Сообщение

ARI71 Пол:Муж

16-Фев-2016 07:35

Смерть в кремлевском кабинете


Год выпуска: 2009
Жанр: документальный, биография, история, расследование
Страна: Россия, «Останкино»
Режиссер: Александр Гурешидзе
Сюжет фильма:
24 августа 1991 года во время вечернего обхода помещений 14-го корпуса Кремля дежурный офицер охраны обнаружил, что в дверях кабинета 19а снаружи торчит ключ. Свет в комнате погашен и оттуда не доносится никаких звуков. В кабинете было обнаружено тело маршала Сергея Ахромеева. Труп находился в сидячем положении под подоконником окна кабинета. В фильме приводится несколько различных версий причин самоубийства со слов коллег маршала, близких и родных, следователей, занимавшиеся этим делом, и ведущих политиков того времени.

Сергей Фёдорович Ахроме́ев (5 мая 1923 года, село Виндрей, Тамбовская губерния — 24 августа 1991 года, Москва) — советский военачальник, Маршал Советского Союза (1983). Герой Советского Союза (1982).
Начальник Генерального штаба Вооружённых Сил СССР — первый заместитель министра обороны СССР (1984—1988). Депутат Верховного Совета СССР 11-го созыва, народный депутат СССР с 1989 года.
Качество видео: SatRip

Продолжительность: 00:43:58
Формат: AVI
Видео: XviD, 704x528, ~1497 kbps
Аудио: русский, оригинал, MP3 2.0, ~128.00 kbps

Код:

Общее
Полное имя : D:\Смерть в кремлевском кабинете.2009.XviD.SATRip.DaVinci.avi
Формат : AVI
Формат/Информация : Audio Video Interleave
Размер файла : 514 Мбайт
Продолжительность : 43 м.
Общий поток : 1636 Кбит/сек
Библиотека кодирования : VirtualDub build 35390/release

Видео
Идентификатор : 0
Формат : MPEG-4 Visual
Профиль формата : Advanced Simple@L5
Параметр BVOP формата : 2
Параметр QPel формата : Нет
Параметр GMC формата : Без точки перехода
Параметр матрицы формата : Default (H.263)
Режим смешивания : Сжатый битовый поток
Идентификатор кодека : XVID
Идентификатор кодека/Подсказка : XviD
Продолжительность : 43 м.
Битрейт : 1498 Кбит/сек
Ширина : 704 пикселя
Высота : 528 пикселей
Соотношение сторон : 4:3
Частота кадров : 25,000 кадров/сек
Цветовое пространство : YUV
Субдискретизация насыщенности : 4:2:0
Битовая глубина : 8 бит
Тип развёртки : Прогрессивная
Метод сжатия : С потерями
Бит/(Пиксели*Кадры) : 0.161
Размер потока : 471 Мбайт (92%)
Библиотека кодирования : XviD 1.2.1 (UTC 2008-12-04)

Аудио
Идентификатор : 1
Формат : MPEG Audio
Версия формата : Version 1
Профиль формата : Layer 3
Режим : Joint stereo
Расширение режима : MS Stereo
Идентификатор кодека : 55
Идентификатор кодека/Подсказка : MP3
Продолжительность : 43 м.
Вид битрейта : Постоянный
Битрейт : 128 Кбит/сек
Каналы : 2 канала
Частота : 48,0 КГц
Метод сжатия : С потерями
Размер потока : 40,3 Мбайт (8%)
Выравнивание : Разделение по промежуткам
Продолжительность промежутка : 40 мс. (1,00 видеокадр)
Время предзагрузки промежутка : 500 мс.
picpicpicpic
Для увеличения картинки щелкните мышкой по превью

Этот торрент недоступен для скачивания без регистрации, однако доступен по публичной magnet-ссылке (источники с публичных трекеров). Перед использованием ссылки прочтите, пожалуйста Пользовательское соглашение, а также как можно дольше оставайтесь на раздаче! Для того, чтобы скачать сам торрент-файл (который видит больше источников), а также для того, чтобы поблагодарить релизера, вам необходимо зарегистрироваться. Если регистрироваться лень - вы можете также попробовать скачать релиз по нашим партнерским ссылкам ниже.

[underverse.su].t63162.torrent
Трекер: Зарегистрирован   [ 16.02.2016 07:35 ]  

Статус: проверено (by 90ytr90 at 16.02.2016 10:16)
Поблагодарили: 1 человек
Тип торрента: публичный - доступные источники с открытых трекеров: 
Размер: 514 MB (занимает 0,11 DVDR, для записи нужно 1 болванка DVDR/RW)
 
 
Похожие темы
Форум Тема Автор Торрент Отв. Посл. сооб.
Зарубежное кино [DVDRip, Low-Res HDRip, и т.д.] Смерть в колледже / Dead on Campus (Кертис Кроуфорд) [2014 г., триллер, детектив, драма, BDRip] AVO makkol
9 | 2

0 | 375

7

12.12.2015 10:49

Зарубежное кино [HDDVDRip / BDRip / WEB-DL / HDTV 1080/720р] Смерть в колледже / Dead on Campus (Кертис Кроуфорд) [2014 г., триллер, детектив, драма, BDRip 1080p] AVO + Original makkol
2 | 3

0 | 392

3

12.12.2015 10:56


Яндекс.Метрика powered by Sphinx


В Н И М А Н И Е
Сайт не распространяет и не хранит электронные версии произведений, а лишь бесплатно и без коммерческой выгоды (не требуя взамен платы,
SMS и т.д.) предоставляет доступ к создаваемому пользователями каталогу ссылок на торрент-файлы, которые содержат только списки хеш-сумм.
Убедительная просьба с жалобами обращаться напрямую к пользователю, разместившему торрент файл.

Вверх