Loading...
Error

Блюз малышки / Baby Blues (Ларс Е. Джейкобсон) [2008 г., ужасы, триллер, драма, HDRip] VO

Статистика раздачи
Размер:  1,36 GB   |    Зарегистрирован:  9 месяцев   |    Скачан:  2 раза

Полного источника не было: 5 месяцев 14 дней

Сидов:  0  |  0 KB/s  ]   Личеров:  0  |  0 KB/s  ]

* - сиды/пиры с внешних источников

   
 
Автор Сообщение

makkol Пол:Муж

15-Фев-2016 22:49

Блюз малышки / Baby Blues


Год выпуска: 2008
Жанр: ужасы, триллер, драма
Производство: США [Neverending Light Productions, Lab 601, RedPill Productions]
Режиссер: Ларс Е. Джейкобсон
В ролях: Коллин Порш, Эйден Кирш, Ридж Кэнайп, Шон Джонсон, Холден Томас Мэйнард, Кали Мэйджерс, Джоэль Брайант
Сюжет фильма:
Женщина, живущая в доме на окраине и воспитывающая четырёх маленьких детей, сходит с ума. Теперь её самый старший сын — подросток должен спасти остальных детей, которым угрожает смерть от руки сумасшедшей матери.

  • Мировая премьера: 5 августа 2008


Качество видео: HDRip

Продолжительность: 01:17:01
Формат: AVI
Видео: XviD, 720x400 (16:9), 23.976 fps, 2078 kbps
Аудио: русский, любительский одноголосый закадровый, AC3 5.1, 48 kHz, 448 kbps

Код:

Общее
Формат : AVI
Формат/Информация : Audio Video Interleave
Размер файла : 1,36 Гбайт
Продолжительность : 1 ч. 17 м.
Общий поток : 2534 Кбит/сек
Программа кодирования : VirtualDubMod 1.5.10.2 (build 2540/release)

Видео
Идентификатор : 0
Формат : MPEG-4 Visual
Профиль формата : Advanced Simple@L5
Параметр BVOP формата : 2
Параметр QPel формата : Нет
Параметр GMC формата : Без точки перехода
Параметр матрицы формата : Default (H.263)
Идентификатор кодека : XVID
Идентификатор кодека/Подсказка : XviD
Продолжительность : 1 ч. 17 м.
Битрейт : 2078 Кбит/сек
Ширина : 720 пикс.
Высота : 400 пикс.
Соотношение сторон : 16:9
Частота кадров : 23,976 кадр/сек
Цветовое пространство : YUV
Подвыборка цветности : 4:2:0
Битовая глубина : 8 бит
Тип развёртки : Прогрессивная
Метод сжатия : С потерями
Бит/(Пиксели*Кадры) : 0.301
Размер потока : 1,12 Гбайт (82%)
Библиотека кодирования : XviD 1.2.1 (UTC 2008-12-04)

Аудио
Идентификатор : 1
Формат : AC-3
Формат/Информация : Audio Coding 3
Расширение режима : CM (complete main)
Идентификатор кодека : 2000
Продолжительность : 1 ч. 16 м.
Вид битрейта : Постоянный
Битрейт : 448 Кбит/сек
Каналы : 6 каналов
Расположение каналов : Front: L C R, Side: L R, LFE
Частота : 48,0 КГц
Битовая глубина : 16 бит
Метод сжатия : С потерями
Размер потока : 247 Мбайт (18%)
Выравнивание : Соединение по промежуткам
Продолжительность промежутка : 42 мс. (1,00 видеокадр)
Время предзагрузки промежутка : 512 ms
Перевод: femme
Озвучивание: viare&avrail87
picpicpicpicpic
Для увеличения картинки щелкните мышкой по превью

Этот торрент недоступен для скачивания без регистрации, однако доступен по публичной magnet-ссылке (источники с публичных трекеров). Перед использованием ссылки прочтите, пожалуйста Пользовательское соглашение, а также как можно дольше оставайтесь на раздаче! Для того, чтобы скачать сам торрент-файл (который видит больше источников), а также для того, чтобы поблагодарить релизера, вам необходимо зарегистрироваться. Если регистрироваться лень - вы можете также попробовать скачать релиз по нашим партнерским ссылкам ниже.

[underverse.su].t63156.torrent
Трекер: Зарегистрирован   [ 15.02.2016 22:49 ]  

Статус: проверено (by makkol at 16.02.2016 23:55)
Поблагодарили: пока никто не поблагодарил...
Тип торрента: публичный - доступные источники с открытых трекеров: 
Размер: 1,36 GB (занимает 0,31 DVDR, для записи нужно 1 болванка DVDR/RW)
 
 

Яндекс.Метрика powered by Sphinx


В Н И М А Н И Е
Сайт не распространяет и не хранит электронные версии произведений, а лишь бесплатно и без коммерческой выгоды (не требуя взамен платы,
SMS и т.д.) предоставляет доступ к создаваемому пользователями каталогу ссылок на торрент-файлы, которые содержат только списки хеш-сумм.
Убедительная просьба с жалобами обращаться напрямую к пользователю, разместившему торрент файл.

Вверх