Loading...
Error

Убийцы с большого озера / The Lakeshore Killers [2015 г., документальный, природа, флора, фауна, HDTVRip] Dub

Статистика раздачи
Размер:  555 MB   |    Зарегистрирован:  9 месяцев   |    Скачан:  3 раза

Полного источника не было: 4 месяца 27 дней

Сидов:  0  |  0 KB/s  ]   Личеров:  0  |  0 KB/s  ]

* - сиды/пиры с внешних источников

   
 
Автор Сообщение

ARI71 Пол:Муж

15-Фев-2016 19:34

Убийцы с большого озера / The Lakeshore Killers


Год выпуска: 2015
Жанр: документальный, природа, флора, фауна
Страна: США, National Geographic Channels
Режиссер: Дон Персиваль
Сюжет фильма:
В самом сердце Африки, в долине реки Замбези, находится великое озеро. Здесь мы познакомимся с тремя львами в самом расцвете сил, которым ещё многое придётся доказать. Они должны наладить крепкую связь с новым прайдом и пройти свой путь через опасности этой дикой местности, чтобы стать настоящими самцами прайда и правителями этих земель. Жизнь в долине Замбези непростая: на берегу озера за пищу приходится соперничать с крокодилами. Это озеро — источник пропитания, но также и большой опасности. Прайд не может существовать, питаясь одними импалами и водяными козлами, поэтому старается по возможности охотиться на бегемотов и бизонов. В конце концов, прайд объединяется, чтобы стать полноценной охотничьей командой и успешно поймать большую добычу. Выживание является лейтмотивом этой увлекательной истории и мотивацией львов. Помимо этого, мы понаблюдаем за тактикой выживания львов с высоты птичьего полёта и увидим, каким неожиданным образом они приспосабливают свои охотничьи навыки, чтобы достичь успеха.
Качество видео: HDTVRip

Продолжительность: 00:43:07
Формат: AVI
Видео: XviD, 720x400, ~1596 kbps
Аудио: русский, дублированный, AC3 2.0, ~192.00 kbps

Код:

Общее
Полное имя : D:\Ubijchy.s.Bolshogo.Ozera.2015.XviD.HDTVRip.by.GeneralFilm.avi
Формат : AVI
Формат/Информация : Audio Video Interleave
Размер файла : 555 Мбайт
Продолжительность : 43 м.
Общий поток : 1798 Кбит/сек
Программа кодирования : VirtualDubMod 1.5.10.3 | www.virtualdub-fr.org || (build 2550/release)
Библиотека кодирования : VirtualDubMod build 2550/release

Видео
Идентификатор : 0
Формат : MPEG-4 Visual
Профиль формата : Advanced Simple@L5
Параметр BVOP формата : 1
Параметр QPel формата : Нет
Параметр GMC формата : Без точки перехода
Параметр матрицы формата : Выборочная
Идентификатор кодека : XVID
Идентификатор кодека/Подсказка : XviD
Продолжительность : 43 м.
Битрейт : 1596 Кбит/сек
Ширина : 720 пикселей
Высота : 400 пикселей
Соотношение сторон : 16:9
Частота кадров : 25,000 кадров/сек
Цветовое пространство : YUV
Субдискретизация насыщенности : 4:2:0
Битовая глубина : 8 бит
Тип развёртки : Прогрессивная
Метод сжатия : С потерями
Бит/(Пиксели*Кадры) : 0.222
Размер потока : 492 Мбайт (89%)
Библиотека кодирования : XviD 73

Аудио
Идентификатор : 1
Формат : AC-3
Формат/Информация : Audio Coding 3
Расширение режима : CM (complete main)
Параметр Endianness формата : Big
Идентификатор кодека : 2000
Продолжительность : 43 м.
Вид битрейта : Постоянный
Битрейт : 192 Кбит/сек
Каналы : 2 канала
Расположение каналов : Front: L R
Частота : 48,0 КГц
Метод сжатия : С потерями
Размер потока : 59,2 Мбайт (11%)
Выравнивание : Разделение по промежуткам
Продолжительность промежутка : 40 мс. (1,00 видеокадр)
Время предзагрузки промежутка : 500 мс.
picpicpicpic
Для увеличения картинки щелкните мышкой по превью

Этот торрент недоступен для скачивания без регистрации, однако доступен по публичной magnet-ссылке (источники с публичных трекеров). Перед использованием ссылки прочтите, пожалуйста Пользовательское соглашение, а также как можно дольше оставайтесь на раздаче! Для того, чтобы скачать сам торрент-файл (который видит больше источников), а также для того, чтобы поблагодарить релизера, вам необходимо зарегистрироваться. Если регистрироваться лень - вы можете также попробовать скачать релиз по нашим партнерским ссылкам ниже.

[underverse.su].t63147.torrent
Трекер: Зарегистрирован   [ 15.02.2016 19:34 ]  

Статус: проверено (by 90ytr90 at 15.02.2016 19:48)
Поблагодарили: 1 человек
Тип торрента: публичный - доступные источники с открытых трекеров: 
Размер: 555 MB (занимает 0,12 DVDR, для записи нужно 1 болванка DVDR/RW)
 
 

Яндекс.Метрика powered by Sphinx


В Н И М А Н И Е
Сайт не распространяет и не хранит электронные версии произведений, а лишь бесплатно и без коммерческой выгоды (не требуя взамен платы,
SMS и т.д.) предоставляет доступ к создаваемому пользователями каталогу ссылок на торрент-файлы, которые содержат только списки хеш-сумм.
Убедительная просьба с жалобами обращаться напрямую к пользователю, разместившему торрент файл.

Вверх