Loading...
Error

Вся правда о Патрик Суэйзи / True Hollywood Story Patrick Swayze [2009 г., документальный, биография, SatRip] DVO

Статистика раздачи
Размер:  464 MB   |    Зарегистрирован:  9 месяцев   |    Скачан:  1 раз

Полного источника не было: 9 месяцев

Сидов:  0  |  0 KB/s  ]   Личеров:  0  |  0 KB/s  ]

* - сиды/пиры с внешних источников

   
 
Автор Сообщение

ARI71 Пол:Муж

15-Фев-2016 19:06

Вся правда о Патрик Суэйзи / True Hollywood Story Patrick Swayze


Год выпуска: 2009
Жанр: документальный, биография
Страна: США, E! Entertainment Television
В ролях: Патрик Суэйзи
Сюжет фильма:
О ком-то говорят, что он родился в "рубашке", а вот о Патрике Суэйзи можно сказать, что он родился в "балетных тапочках".
Да и как могло быть иначе, если его мама - известный хореограф в Америке и владелица частной балетной школы? Само собой, что мальчик стал профессионально заниматься танцами и музыкой. Он был баловнем судьбы, который, однако, знал, что такое тяжелый труд, разочарования и потери. Танцор, актер, боец - и это правдивая голливудская история о нём.

Патрик Уэйн Суэйзи (англ. Patrick Wayne Swayze [ˈsweɪziː]; 18 августа 1952 — 14 сентября 2009) — американский актёр, танцор и автор-исполнитель, наиболее известный по ролям в фильмах «Грязные танцы» (1987), «Привидение» (1990) и «На гребне волны» (1991).
Качество видео: SatRip

Продолжительность: 00:45:08
Формат: AVI
Видео: XviD, 704x528, ~1298 kbps
Аудио: русский, двухголосый [профессиональный], MP3 2.0, ~128.00 kbps

Код:

Общее
Полное имя : D:\Вся правда о Патрик Суэйзи SATRip by Katena.avi
Формат : AVI
Формат/Информация : Audio Video Interleave
Размер файла : 464 Мбайт
Продолжительность : 45 м.
Общий поток : 1436 Кбит/сек
Библиотека кодирования : VirtualDub build 30586/release

Видео
Идентификатор : 0
Формат : MPEG-4 Visual
Профиль формата : Advanced Simple@L5
Параметр BVOP формата : 1
Параметр QPel формата : Нет
Параметр GMC формата : Без точки перехода
Параметр матрицы формата : Выборочная
Идентификатор кодека : XVID
Идентификатор кодека/Подсказка : XviD
Продолжительность : 45 м.
Битрейт : 1299 Кбит/сек
Ширина : 704 пикселя
Высота : 528 пикселей
Соотношение сторон : 4:3
Частота кадров : 25,000 кадров/сек
Цветовое пространство : YUV
Субдискретизация насыщенности : 4:2:0
Битовая глубина : 8 бит
Тип развёртки : Прогрессивная
Метод сжатия : С потерями
Бит/(Пиксели*Кадры) : 0.140
Размер потока : 419 Мбайт (90%)
Библиотека кодирования : XviD 1.2.1 (UTC 2008-12-04)

Аудио
Идентификатор : 1
Формат : MPEG Audio
Версия формата : Version 1
Профиль формата : Layer 3
Режим : Joint stereo
Расширение режима : MS Stereo
Идентификатор кодека : 55
Идентификатор кодека/Подсказка : MP3
Продолжительность : 45 м.
Вид битрейта : Постоянный
Битрейт : 128 Кбит/сек
Каналы : 2 канала
Частота : 48,0 КГц
Метод сжатия : С потерями
Размер потока : 41,3 Мбайт (9%)
Выравнивание : Разделение по промежуткам
Продолжительность промежутка : 40 мс. (1,00 видеокадр)
Время предзагрузки промежутка : 500 мс.
Релиз группы:

picpicpicpicpic
Для увеличения картинки щелкните мышкой по превью

Этот торрент недоступен для скачивания без регистрации, однако доступен по публичной magnet-ссылке (источники с публичных трекеров). Перед использованием ссылки прочтите, пожалуйста Пользовательское соглашение, а также как можно дольше оставайтесь на раздаче! Для того, чтобы скачать сам торрент-файл (который видит больше источников), а также для того, чтобы поблагодарить релизера, вам необходимо зарегистрироваться. Если регистрироваться лень - вы можете также попробовать скачать релиз по нашим партнерским ссылкам ниже.

[underverse.su].t63144.torrent
Трекер: Зарегистрирован   [ 15.02.2016 19:06 ]  

Статус: проверено (by 90ytr90 at 15.02.2016 19:44)
Поблагодарили: пока никто не поблагодарил...
Тип торрента: публичный - доступные источники с открытых трекеров: 
Размер: 464 MB (занимает 0,1 DVDR, для записи нужно 1 болванка DVDR/RW)
 
 
Похожие темы
Форум Тема Автор Торрент Отв. Посл. сооб.
National Geographic Вся правда о ледяном человеке / Iceman Autopsy (Дэвид Мердок) [2011 г., документальный, научно-познавательный, исследование, HDTVRip 720p] Dub ARI71
0 | 0

0 | 287

1

15.09.2016 08:20


Яндекс.Метрика powered by Sphinx


В Н И М А Н И Е
Сайт не распространяет и не хранит электронные версии произведений, а лишь бесплатно и без коммерческой выгоды (не требуя взамен платы,
SMS и т.д.) предоставляет доступ к создаваемому пользователями каталогу ссылок на торрент-файлы, которые содержат только списки хеш-сумм.
Убедительная просьба с жалобами обращаться напрямую к пользователю, разместившему торрент файл.

Вверх