Loading...
Error

Кошмары / Nightmares (Джозеф Сарджент) [1983 г., ужасы, фантастика, BDRip] VO

Статистика раздачи
Размер:  1,46 GB   |    Зарегистрирован:  9 месяцев   |    Скачан:  1 раз

Полного источника не было: 8 месяцев

Сидов:  0  |  0 KB/s  ]   Личеров:  0  |  0 KB/s  ]

* - сиды/пиры с внешних источников

   
 
Автор Сообщение

makkol Пол:Муж

15-Фев-2016 11:08

Кошмары / Nightmares


Год выпуска: 1983
Жанр: ужасы, фантастика
Производство: США [Universal Pictures]
Режиссер: Джозеф Сарджент
В ролях: Кристина Рейнес, Эмилио Эстевес, Джо Лэмби, Энтони Джеймс, Клер Ноно, Рэли Бонд, Роберт Фелпс, Дикси Линн Ройс, Ли Винг, Мариклэр Костильо
Сюжет фильма:
Антология из четырех историй.

Первый рассказ называется «Ужас в Топанге». Однажды ночью, остановившись в автомобильной пробке, полицейский оказывается убитым незнакомцем, выскочившим из кустов. Телевидение и радио сообщает, что полицейский стал уже пятой жертвой неизвестного маньяка, терроризирующего небольшой город в Калифорнии…

Вторая история имеет название «Епископ сражения». Колли-большой любитель компьютерных видеоигр. Однажды в салоне он начинает играть в игру под названием «Bishop of Battle». Игра имеет целых тринадцать уровней, но еще никто из друзей Колли не смог пройти дальше двенадцатого. Вокруг Колли образуется куча зрителей. Но и Колли не удается пройти дальше. На двенадцатом уровне его убивают. Разочарованные зрители расходятся. Колли хочет попытаться сыграть снова, но владелец салона выгоняет его, закрывая магазин. Но парень не хочет так легко сдаваться. Ночью он убегает из дома и пробирается в салон игральных автоматов, чтобы закончить игру…

История третья под названием «Благословение». На экране предстаёт священник небольшой церкви. Его вера в Бога подорвана недавней смертью маленького мальчика. Он признается настоятелю церкви, что больше не может служить Богу. Он решает покинуть этот городок. Но на пустынной дороге его машину начинает преследовать здоровый черный «омнибус». В конце концов, противостояние заканчивается тем, что машина священника слетает в кювет…

Заключительная история называется «Ночь крыс». Клэр слышит, как в их доме в стенах скребутся крысы, но ее муж Стивен игнорирует ее замечания. Но вскоре Клэр обнаруживает их на чердаке и в шкафу. Вскоре исчезает их кошка, а электрический кабель оказывается перегрызен. Клэр решает позвать истребителя крыс, но возвратившийся с работы Стивен выгоняет его прочь. Зря он это сделал…

  • Мировая премьера: 2 сентября 1983


Качество видео: BDRip

Продолжительность: 01:39:37
Формат: AVI
Видео: XviD, 720x400 (16:9), 23.976 fps, 1900 kbps
Аудио: русский, любительский одноголосый закадровый (Никита Севастьянов), AC3 2.0, 48 kHz, 192 kbps

Код:

Формат : AVI
Формат/Информация : Audio Video Interleave
Размер файла : 1,46 Гбайт
Продолжительность : 1 ч. 39 м.
Общий поток : 2101 Кбит/сек
Программа кодирования : VirtualDubMod 1.5.10.3 | www.virtualdub-fr.org || (build 2550/release)
Библиотека кодирования : VirtualDubMod build 2550/release

Видео
Идентификатор : 0
Формат : MPEG-4 Visual
Профиль формата : Advanced Simple@L5
Параметр BVOP формата : 1
Параметр QPel формата : Нет
Параметр GMC формата : Без точки перехода
Параметр матрицы формата : Выборочная
Идентификатор кодека : XVID
Идентификатор кодека/Подсказка : XviD
Продолжительность : 1 ч. 39 м.
Битрейт : 1900 Кбит/сек
Ширина : 720 пикселей
Высота : 400 пикселей
Соотношение сторон : 16:9
Частота кадров : 23,976 (23976/1000) кадра/сек
Цветовое пространство : YUV
Субдискретизация насыщенности : 4:2:0
Битовая глубина : 8 бит
Тип развёртки : Прогрессивная
Метод сжатия : С потерями
Бит/(Пиксели*Кадры) : 0.275
Размер потока : 1,32 Гбайт (90%)
Библиотека кодирования : XviD 73

Аудио
Идентификатор : 1
Формат : AC-3
Формат/Информация : Audio Coding 3
Расширение режима : CM (complete main)
Параметр Endianness формата : Big
Идентификатор кодека : 2000
Продолжительность : 1 ч. 39 м.
Вид битрейта : Постоянный
Битрейт : 192 Кбит/сек
Каналы : 2 канала
Расположение каналов : Front: L R
Частота : 48,0 КГц
Частота кадров : 31,250 кадров/сек (1536 spf)
Метод сжатия : С потерями
Размер потока : 137 Мбайт (9%)
Выравнивание : Разделение по промежуткам
Продолжительность промежутка : 42 мс. (1,00 видеокадр)
Время предзагрузки промежутка : 500 мс.
Автор рипа: _Bathory_
Релиз от:
picpicpicpicpic
Для увеличения картинки щелкните мышкой по превью

Этот торрент недоступен для скачивания без регистрации, однако доступен по публичной magnet-ссылке (источники с публичных трекеров). Перед использованием ссылки прочтите, пожалуйста Пользовательское соглашение, а также как можно дольше оставайтесь на раздаче! Для того, чтобы скачать сам торрент-файл (который видит больше источников), а также для того, чтобы поблагодарить релизера, вам необходимо зарегистрироваться. Если регистрироваться лень - вы можете также попробовать скачать релиз по нашим партнерским ссылкам ниже.

[underverse.su].t63106.torrent
Трекер: Зарегистрирован   [ 15.02.2016 11:08 ]  

Статус: проверено (by makkol at 16.02.2016 23:53)
Поблагодарили: пока никто не поблагодарил...
Тип торрента: публичный - доступные источники с открытых трекеров: 
Размер: 1,46 GB (занимает 1/3 DVDR, для записи нужно 1 болванка DVDR/RW)
 
 

Яндекс.Метрика powered by Sphinx


В Н И М А Н И Е
Сайт не распространяет и не хранит электронные версии произведений, а лишь бесплатно и без коммерческой выгоды (не требуя взамен платы,
SMS и т.д.) предоставляет доступ к создаваемому пользователями каталогу ссылок на торрент-файлы, которые содержат только списки хеш-сумм.
Убедительная просьба с жалобами обращаться напрямую к пользователю, разместившему торрент файл.

Вверх