Loading...
Error

Бодибилдер / Bodybuilder (Рошди Зем) [2014 г., драма, HDRip] MVO

Статистика раздачи
Размер:  1,46 GB   |    Зарегистрирован:  9 месяцев   |    Скачан:  30 раз

Полного источника не было: 1 месяц 2 дня

Сидов:  0  |  0 KB/s  ]   Личеров:  0  |  0 KB/s  ]

* - сиды/пиры с внешних источников

   
 
Автор Сообщение

makkol Пол:Муж

13-Фев-2016 23:01

Бодибилдер / Bodybuilder


Год выпуска: 2014
Жанр: драма
Производство: Франция [Hole In One Films, Mars Films, Rhône-Alpes Cinéma]
Режиссер: Рошди Зем
В ролях: Венсан Ротье, Марина Фоис, Николя Дювошель, Рошди Зем, Адель Беншериф, Доминик Реймон
Сюжет фильма:
Антуан Морель – из тех парней, что вечно концентрирует вокруг себя проблемы. Он связался с бандой головорезов, и теперь должен им кругленькую сумму. Бандиты ворвались в квартиру Антуана и разгромили ее. К счастью, самому Морелю удалось бежать и спрятаться в интернет-кафе, где он остался незамеченным. Мать Антуана устала от выходок своего непутевого сына – она и так два года копила деньги, чтобы выплатить его долги. Ей надоело покрывать преступника, и она настоятельно просит его наконец-то устроиться на работу и дать ей спокойно пожить.

  • Мировая премьера: 25 августа 2014


Качество видео: HDRip

Продолжительность: 01:39:43
Формат: AVI
Видео: XviD, 720x304 (2.35:1), 24.000 fps, 1805 kbps
Аудио: русский, профессиональный многоголосый закадровый (официальный звук), AC3 2.0, 48 kHz, 192 kbps

Код:

General
Format                                   : AVI
Format/Info                              : Audio Video Interleave
File size                                : 1.46 GiB
Duration                                 : 1h 44mn
Overall bit rate                         : 2 007 Kbps
Writing application                      : VirtualDubMod 1.5.10.2 (build 2540/release)
Writing library                          : VirtualDubMod build 2540/release

Video
ID                                       : 0
Format                                   : MPEG-4 Visual
Format profile                           : Advanced Simple@L5
Format settings, BVOP                    : 2
Format settings, QPel                    : No
Format settings, GMC                     : No warppoints
Format settings, Matrix                  : Default (MPEG)
Codec ID                                 : XVID
Codec ID/Hint                            : XviD
Duration                                 : 1h 44mn
Bit rate                                 : 1 805 Kbps
Width                                    : 720 pixels
Height                                   : 304 pixels
Display aspect ratio                     : 2.35:1
Frame rate                               : 24.000 fps
Color space                              : YUV
Chroma subsampling                       : 4:2:0
Bit depth                                : 8 bits
Scan type                                : Progressive
Compression mode                         : Lossy
Bits/(Pixel*Frame)                       : 0.344
Stream size                              : 1.31 GiB (90%)
Writing library                          : XviD 1.2.1 (UTC 2008-12-04)

Audio
ID                                       : 1
Format                                   : AC-3
Format/Info                              : Audio Coding 3
Mode extension                           : CM (complete main)
Format settings, Endianness              : Big
Codec ID                                 : 2000
Duration                                 : 1h 44mn
Bit rate mode                            : Constant
Bit rate                                 : 192 Kbps
Channel(s)                               : 2 channels
Channel positions                        : Front: L R
Sampling rate                            : 48.0 KHz
Frame rate                               : 31.250 fps (1536 spf)
Compression mode                         : Lossy
Stream size                              : 143 MiB (10%)
Alignment                                : Split accross interleaves
Interleave, duration                     : 42 ms (1.00 video frame)
Interleave, preload duration             : 500 ms
picpicpicpicpic
Для увеличения картинки щелкните мышкой по превью

Этот торрент недоступен для скачивания без регистрации, однако доступен по публичной magnet-ссылке (источники с публичных трекеров). Перед использованием ссылки прочтите, пожалуйста Пользовательское соглашение, а также как можно дольше оставайтесь на раздаче! Для того, чтобы скачать сам торрент-файл (который видит больше источников), а также для того, чтобы поблагодарить релизера, вам необходимо зарегистрироваться. Если регистрироваться лень - вы можете также попробовать скачать релиз по нашим партнерским ссылкам ниже.

[underverse.su].t63028.torrent
Трекер: Зарегистрирован   [ 13.02.2016 23:01 ]  

Статус: T временная (by makkol at 16.02.2016 23:37)
Поблагодарили: 1 человек
Тип торрента: публичный - доступные источники с открытых трекеров: 
Размер: 1,46 GB (занимает 1/3 DVDR, для записи нужно 1 болванка DVDR/RW)
 
 
Похожие темы
Форум Тема Автор Торрент Отв. Посл. сооб.
T Зарубежное кино [HDDVDRip / BDRip / WEB-DL / HDTV 1080/720р] Бодибилдер / Bodybuilder (Рошди Зем) [2014 г., драма, BDRip 720p] MVO + Original makkol
1 | 0

0 | 570

14

13.02.2016 23:08


Яндекс.Метрика powered by Sphinx


В Н И М А Н И Е
Сайт не распространяет и не хранит электронные версии произведений, а лишь бесплатно и без коммерческой выгоды (не требуя взамен платы,
SMS и т.д.) предоставляет доступ к создаваемому пользователями каталогу ссылок на торрент-файлы, которые содержат только списки хеш-сумм.
Убедительная просьба с жалобами обращаться напрямую к пользователю, разместившему торрент файл.

Вверх