Loading...
Error

Второе происхождение / Второе рождение / Segon origen (Карлес Порта) [2015 г., приключения, ужасы, фантастика, HDRip] DVO

Статистика раздачи
Размер:  1,41 GB   |    Зарегистрирован:  9 месяцев   |    Скачан:  65 раз

Полного источника не было: 7 часов

Сидов:  0  |  0 KB/s  ]   Личеров:  0  |  0 KB/s  ]

* - сиды/пиры с внешних источников

   
 
Автор Сообщение

makkol Пол:Муж

13-Фев-2016 22:51

Второе происхождение / Второе рождение / Segon origen


Год выпуска: 2015
Жанр: приключения, ужасы, фантастика
Производство: Испания , Великобритания [Antartida Produccions, Head Gear Films, Ipso Facto Productions, Premiere Picture]
Режиссер: Карлес Порта
В ролях: Рэйчел Херд-Вуд, Андрес Батиста, Серхи Лопес, Андро Креспо, Филип Херд-Вуд, Мариета Ороско, Альберт Прат
Сюжет фильма:
Всё человечество исчезло. Лишь двое выживших, 20-летняя Альба и 10-летний Дидак, остались в разрушенном мире. Для того, чтобы выжить на этой планете, состоящей из руин, они пытаются всё начать с нуля. Вместе они должны будут не только спасти собственные жизни, но и исправить грехи всего человечества. Когда всё на свете кажется потерянным, любовь — это единственное руководство по выживанию.

  • Мировая премьера: 7 октября 2015


Качество видео: HDRip

Продолжительность: 01:46:15
Формат: AVI
Видео: XviD, 720x302 (2.40:1), 24.000 fps, 1695 kbps
Аудио: русский, любительский двухголосый закадровый, MP3 2.0, 48 kHz, 192 kbps

Код:

General
Complete name : Segundo origen 2015.avi
Format : AVI
Format/Info : Audio Video Interleave
File size : 1.41 GiB
Duration : 1h 46mn
Overall bit rate : 1 896 Kbps
Writing application : VirtualDubMod 1.5.10.2 (build 2542/release)
Writing library : VirtualDub build 35576/release

Video
ID : 0
Format : MPEG-4 Visual
Format profile : Advanced Simple@L5
Format settings, BVOP : 2
Format settings, QPel : No
Format settings, GMC : No warppoints
Format settings, Matrix : Default (MPEG)
Codec ID : XVID
Codec ID/Hint : XviD
Duration : 1h 46mn
Bit rate : 1 695 Kbps
Width : 720 pixels
Height : 302 pixels
Display aspect ratio : 2.40:1
Frame rate : 24.000 fps
Color space : YUV
Chroma subsampling : 4:2:0
Bit depth : 8 bits
Scan type : Progressive
Compression mode : Lossy
Bits/(Pixel*Frame) : 0.325
Stream size : 1.26 GiB (89%)
Writing library : XviD 64

Audio
ID : 1
Format : MPEG Audio
Format version : Version 1
Format profile : Layer 3
Codec ID : 55
Codec ID/Hint : MP3
Duration : 1h 46mn
Bit rate mode : Constant
Bit rate : 192 Kbps
Channel(s) : 2 channels
Sampling rate : 48.0 KHz
Compression mode : Lossy
Stream size : 146 MiB (10%)
Interleave, duration : 42 ms (1.00 video frame)
Interleave, preload duration : 500 ms
Перевод: Куценко
Озвучивание: Galina Vasyukova & datynet
picpicpicpicpic
Для увеличения картинки щелкните мышкой по превью

Этот торрент недоступен для скачивания без регистрации, однако доступен по публичной magnet-ссылке (источники с публичных трекеров). Перед использованием ссылки прочтите, пожалуйста Пользовательское соглашение, а также как можно дольше оставайтесь на раздаче! Для того, чтобы скачать сам торрент-файл (который видит больше источников), а также для того, чтобы поблагодарить релизера, вам необходимо зарегистрироваться. Если регистрироваться лень - вы можете также попробовать скачать релиз по нашим партнерским ссылкам ниже.

[underverse.su].t63027.torrent
Трекер: Зарегистрирован   [ 13.02.2016 22:51 ]  

Статус: проверено (by makkol at 16.02.2016 23:36)
Поблагодарили: 3 человека
Тип торрента: публичный - доступные источники с открытых трекеров: 
Размер: 1,41 GB (занимает 0,32 DVDR, для записи нужно 1 болванка DVDR/RW)
 
 

Яндекс.Метрика powered by Sphinx


В Н И М А Н И Е
Сайт не распространяет и не хранит электронные версии произведений, а лишь бесплатно и без коммерческой выгоды (не требуя взамен платы,
SMS и т.д.) предоставляет доступ к создаваемому пользователями каталогу ссылок на торрент-файлы, которые содержат только списки хеш-сумм.
Убедительная просьба с жалобами обращаться напрямую к пользователю, разместившему торрент файл.

Вверх