Loading...
Error

Рыбалка в стиле "Олд Скул" (1-7 серии из 7) [2015 г., документальный, рыбалка, WEBRip]

Статистика раздачи
Размер:  5,39 GB   |    Зарегистрирован:  9 месяцев   |    Скачан:  15 раз

Полного источника не было: 3 месяца 19 дней

Сидов:  0  |  0 KB/s  ]   Личеров:  0  |  0 KB/s  ]

* - сиды/пиры с внешних источников

   
 
Автор Сообщение

ARI71 Пол:Муж

13-Фев-2016 20:36

Рыбалка в стиле "Олд Скул" (1-7 серии из 7)


Год выпуска: 2015
Жанр: документальный, рыбалка
Страна: Украина
Режиссер: Максим Сальник
В ролях: Семён Олд
Сюжет фильма:
Широко известный старый киевский рыболов, блоггер и писатель Семён Олд поделится секретами успешной рыбалки на простые и доступные снасти.
Качество видео: WEBRip

Продолжительность: 7 х 00:40:00
Формат: AVI
Видео: XviD, 800x600, ~2493 kbps
Аудио: русский, оригинал, MP3 2.0, ~256.00 kbps
(тех. данные всех серий идентичны)
01. Ловля леща с лодки на Днепре
02. Рыбалка на аборигенном Днепре
03. Мастырка от Олда
04. Олдовый рецепт копченого cудака и карпа. Олдовой ухи и леща на мангале
05. Сталькотролл
06. Олдовые снасти
07. Рыбалка в Сорокошичах

Код:

Общее
Полное имя : D:\Олд Скул\01. Олд Скул. Ловля Леща с лодки на Днепре.avi
Формат : AVI
Формат/Информация : Audio Video Interleave
Размер файла : 790 Мбайт
Продолжительность : 40 м.
Общий поток : 2763 Кбит/сек
Программа кодирования : Lavf52.93.0

Видео
Идентификатор : 0
Формат : xvid
Идентификатор кодека : xvid
Продолжительность : 40 м.
Битрейт : 2494 Кбит/сек
Ширина : 800 пикселей
Высота : 600 пикселей
Соотношение сторон : 4:3
Частота кадров : 30,000 кадров/сек
Бит/(Пиксели*Кадры) : 0.173
Размер потока : 713 Мбайт (90%)

Аудио
Идентификатор : 1
Формат : MPEG Audio
Версия формата : Version 1
Профиль формата : Layer 3
Режим : Joint stereo
Расширение режима : MS Stereo
Идентификатор кодека : 55
Идентификатор кодека/Подсказка : MP3
Продолжительность : 40 м.
Вид битрейта : Постоянный
Битрейт : 256 Кбит/сек
Каналы : 2 канала
Частота : 44,1 КГц
Метод сжатия : С потерями
Размер потока : 73,2 Мбайт (9%)
Выравнивание : Соединение по промежуткам
Продолжительность промежутка : 26 мс. (0,78 видеокадр)
Библиотека кодирования : LAME3.98.4
picpicpicpicpic
Для увеличения картинки щелкните мышкой по превью

Этот торрент недоступен для скачивания без регистрации, однако доступен по публичной magnet-ссылке (источники с публичных трекеров). Перед использованием ссылки прочтите, пожалуйста Пользовательское соглашение, а также как можно дольше оставайтесь на раздаче! Для того, чтобы скачать сам торрент-файл (который видит больше источников), а также для того, чтобы поблагодарить релизера, вам необходимо зарегистрироваться. Если регистрироваться лень - вы можете также попробовать скачать релиз по нашим партнерским ссылкам ниже.

[underverse.su].t63024.torrent
Трекер: Зарегистрирован   [ 13.02.2016 20:36 ]  

Статус: проверено (by makkol at 13.02.2016 21:59)
Поблагодарили: 1 человек
Тип торрента: публичный - доступные источники с открытых трекеров: 
Размер: 5,39 GB (занимает 1,23 DVDR, для записи нужно 2 болванки DVDR/RW)
 
 
Похожие темы
Форум Тема Автор Торрент Отв. Посл. сооб.
Рыбалка Рыбалка в стиле "Олд Скул" (10 выпусков) / (Максим Сальник) [2015-2016 г., документальный, познавательный, рыбалка, WEBRip] ARI71
3 | 0

0 | 402

0

16.09.2016 04:47

Рыбалка Рыбалка в стиле "Олд Скул". (Рыбалка осенью в устье Ворсклы) [2015 г., документальный, рыбалка, WEBRip] ARI71
3 | 0

0 | 461

2

25.02.2016 12:12

Рыбалка Рыбалка в Хабаровском Крае. Выпуск № 11 (Александр Белов) [2008 г., документальный, рыбалка, DVDRip] ARI71
5 | 1

0 | 405

1

06.08.2016 10:54

Архив Рыбалка в открытом море [2009 г., Simulator] RUS GanibalKing
0 | 0

3 | 2245

31

05.11.2011 14:45


Яндекс.Метрика powered by Sphinx


В Н И М А Н И Е
Сайт не распространяет и не хранит электронные версии произведений, а лишь бесплатно и без коммерческой выгоды (не требуя взамен платы,
SMS и т.д.) предоставляет доступ к создаваемому пользователями каталогу ссылок на торрент-файлы, которые содержат только списки хеш-сумм.
Убедительная просьба с жалобами обращаться напрямую к пользователю, разместившему торрент файл.

Вверх