Loading...
Error

Бойцовский клуб для животных / Animal Fight Club (3 сезон: 1-5 серии из 5) [2014 г., документальный, природа, флора, фауна, HDTVRip] Dub

Статистика раздачи
Размер:  2,52 GB   |    Зарегистрирован:  1 год 5 месяцев   |    Скачан:  9 раз

Полного источника не было: 3 месяца 19 дней

Сидов:  0  |  0 KB/s  ]   Личеров:  0  |  0 KB/s  ]

* - сиды/пиры с внешних источников

   
 
Автор Сообщение

ARI71 Пол:Муж

13-Фев-2016 19:19

Бойцовский клуб для животных / Animal Fight Club (3 сезон)


Год выпуска: 2014
Жанр: документальный, природа, флора, фауна
Страна: США, National Geographic Channels
Режиссер: Эми Фостер
Сюжет фильма:
Программа Бойцовский клуб для животных состоит из 3 частей, в которых показаны драки между самыми большими, злыми и часто очень неожиданными бойцами мира животных. От львов и бегемотов, до волков, бизонов и крокодилов – соперники происходят из разных уголков света. В Бойцовском Клубе для Животных вы найдете яркий свет, драму и тестостерон традиционных боев без правил - сериал раскрывает секреты тактики и оружия, которое люди не могут использовать. Здесь нет запрещенных приемов – в дикой природе в ход идет все.
Качество видео: HDTVRip

Продолжительность: 5 x ~ 00:44:00
Формат: AVI
Видео: XviD, 720x400, ~1449 kbps
Аудио: русский, дублированный, AC3 2.0, ~192 kbps
(Тех. данные всех серий идентичны)
01. Кто в доме хозяин?
02. Гиганты в ярости.
03. Смертельная битва.
04. Битвы за территорию.
05. Опасные встречи.

Код:

Общее
Полное имя : D:\Animal.Fight.sezon.3.Club.2014.XviD.HDTVRip.by.GeneralFilm\01.serija.avi
Формат : AVI
Формат/Информация : Audio Video Interleave
Размер файла : 516 Мбайт
Продолжительность : 43 м.
Общий поток : 1652 Кбит/сек
Программа кодирования : VirtualDubMod 1.5.10.3 | www.virtualdub-fr.org || (build 2550/release)
Библиотека кодирования : VirtualDubMod build 2550/release

Видео
Идентификатор : 0
Формат : MPEG-4 Visual
Профиль формата : Advanced Simple@L5
Параметр BVOP формата : 1
Параметр QPel формата : Нет
Параметр GMC формата : Без точки перехода
Параметр матрицы формата : Выборочная
Идентификатор кодека : XVID
Идентификатор кодека/Подсказка : XviD
Продолжительность : 43 м.
Битрейт : 1450 Кбит/сек
Ширина : 720 пикселей
Высота : 400 пикселей
Соотношение сторон : 16:9
Частота кадров : 25,000 кадров/сек
Цветовое пространство : YUV
Субдискретизация насыщенности : 4:2:0
Битовая глубина : 8 бит
Тип развёртки : Прогрессивная
Метод сжатия : С потерями
Бит/(Пиксели*Кадры) : 0.201
Размер потока : 453 Мбайт (88%)
Библиотека кодирования : XviD 73

Аудио
Идентификатор : 1
Формат : AC-3
Формат/Информация : Audio Coding 3
Расширение режима : CM (complete main)
Параметр Endianness формата : Big
Идентификатор кодека : 2000
Продолжительность : 43 м.
Вид битрейта : Постоянный
Битрейт : 192 Кбит/сек
Каналы : 2 канала
Расположение каналов : Front: L R
Частота : 48,0 КГц
Метод сжатия : С потерями
Размер потока : 60,0 Мбайт (12%)
Выравнивание : Разделение по промежуткам
Продолжительность промежутка : 40 мс. (1,00 видеокадр)
Время предзагрузки промежутка : 500 мс.
Релиз группы:

picpicpicpic
Для увеличения картинки щелкните мышкой по превью

Этот торрент недоступен для скачивания без регистрации, однако доступен по публичной magnet-ссылке (источники с публичных трекеров). Перед использованием ссылки прочтите, пожалуйста Пользовательское соглашение, а также как можно дольше оставайтесь на раздаче! Для того, чтобы скачать сам торрент-файл (который видит больше источников), а также для того, чтобы поблагодарить релизера, вам необходимо зарегистрироваться. Если регистрироваться лень - вы можете также попробовать скачать релиз по нашим партнерским ссылкам ниже.

[underverse.su].t63019.torrent
Трекер: Зарегистрирован   [ 13.02.2016 19:19 ]  

Статус: проверено (by makkol at 13.02.2016 21:57)
Поблагодарили: 1 человек
Тип торрента: публичный - доступные источники с открытых трекеров: 
Размер: 2,52 GB (занимает 0,58 DVDR, для записи нужно 1 болванка DVDR/RW)
 
 
Похожие темы
Форум Тема Автор Торрент Отв. Посл. сооб.
Зарубежное кино [DVDRip, Low-Res HDRip, и т.д.] Бойцовский клуб / Fight Club (Дэвид Финчер / David Fincher) [1999 г., триллер, драма, детектив, BDRip-AVC] M-i-i-i-ke
0 | 0

5 | 1216

6

24.06.2010 15:42

Зарубежное кино [DVDRip, Low-Res HDRip, и т.д.] Бойцовский клуб / Fight Club (Дэвид Финчер) [1999 г., триллер, драма, криминал, BDRip] Dub RG NewCinema
0 | 0

5 | 1190

5

30.04.2013 18:28

Зарубежное кино [DVDRip, Low-Res HDRip, и т.д.] Бойцовский клуб зомби / Zombie Fight Club (Джо Чиен) [2014 г., ужасы, HDRip] DVO [DeadSno & den904] Паукан
1 | 0

0 | 745

10

23.12.2014 14:10

Зарубежное кино [DVDRip, Low-Res HDRip, и т.д.] Бойцовский клуб / Fight Club (Дэвид Финчер / David Fincher) [1999 г., триллер, драма, криминал, детектив, HDRip] [10th Anniversary Edition] Dub 90ytr90
26 | 0

0 | 470

3

16.02.2016 17:51

Зарубежное кино [DVDRip, Low-Res HDRip, и т.д.] Бойцовский клуб / Fight Club (Дэвид Финчер / David Fincher) [1999 г., триллер, драма, криминал, детектив, BDRip-AVC] [10th Anniversary Edition] Dub + Original (Eng) + Sub (Rus, Eng) 90ytr90
59 | 0

0 | 515

8

16.02.2016 18:04

Зарубежное кино [DVDRip, Low-Res HDRip, и т.д.] Бойцовский клуб / Fight Club (Дэвид Финчер / David Fincher) [1999 г., триллер, драма, криминал, детектив, HDTVRip] Dub 90ytr90
0 | 0

0 | 420

3

16.02.2016 18:12

Зарубежное кино [DVDRip, Low-Res HDRip, и т.д.] Бойцовский клуб / Fight Club (Дэвид Финчер / David Fincher) [1999 г., триллер, драма, криминал, детектив, HDTVRip] Dub 90ytr90
2 | 0

0 | 471

14

16.02.2016 18:25

T Зарубежное кино [DVDRip, Low-Res HDRip, и т.д.] Бойцовский женский клуб / Female Fight Club (Мигель А. Феррер) [2016 г., боевик, драма, WEB-DLRip] MVO (Синема УС) makkol
69 | 0

0 | 379

9

06.04.2017 12:15


Яндекс.Метрика powered by Sphinx


В Н И М А Н И Е
Сайт не распространяет и не хранит электронные версии произведений, а лишь бесплатно и без коммерческой выгоды (не требуя взамен платы,
SMS и т.д.) предоставляет доступ к создаваемому пользователями каталогу ссылок на торрент-файлы, которые содержат только списки хеш-сумм.
Убедительная просьба с жалобами обращаться напрямую к пользователю, разместившему торрент файл.

Вверх