Loading...
Error

Найджел Марвен - путешествие в Юньнань / Yunnan Adventure with Nigel Marven [2012 г., документальный, флора, фауна, SatRip] VO

Статистика раздачи
Размер:  499 MB   |    Зарегистрирован:  9 месяцев   |    Скачан:  6 раз

Полного источника не было: 1 месяц 8 дней

Сидов:  0  |  0 KB/s  ]   Личеров:  0  |  0 KB/s  ]

* - сиды/пиры с внешних источников

   
 
Автор Сообщение

ARI71 Пол:Муж

13-Фев-2016 17:46

Найджел Марвен - путешествие в Юньнань / Yunnan Adventure with Nigel Marven


Год выпуска: 2012
Жанр: документальный, флора, фауна
Страна: Великобритания, Nature
Режиссер: Найджел Марвен
В ролях: Найджел Марвен
Сюжет фильма:
В этом захватывающем документальном фильме Найджел Марвен отправляется на поиски и исследует особей животных, находящихся под угрозой исчезновения. Он поднимется высоко в горы, расположенные в китайской южной провинции Юньнань, для того чтобы отыскать и изучить очень редкие виды животных. Юньнаньские черные курносые обезьяны обитают на самых больших высотах, доступных приматам, а белобровый гиббон или хулок является одним из самых редких животных на Земле. Также вас ждут невероятные встречи с удивительными черепахами, змеями, красными пандами, обитающими в бамбуковых лесах, огромными саламандрами, достигающими в размерах самого Найджела и редкими зелеными павлинами, своим танцем когда-то вдохновивших китайских артистов.
Качество видео: SatRip

Продолжительность: 00:43:48
Формат: AVI
Видео: XviD, 720x400, ~1389 kbps
Аудио: русский, одноголосый закадровый [профессиональный] "SDI Media Russia" Игорь Куликов, AC3 2.0, ~192.00 kbps
Найджел Марвен, англ. Nigel Marven (р. 1960) — британский телевизионный продюсер и телеведущий. Известен как постановщик и ведущий ряда сериалов, продолжающих «Прогулки с динозаврами», в которых Марвен «путешествует в прошлое» и участвует в событиях наряду с жителями доисторического мира.

Код:

Общее
Полное имя : D:\Puteshestvie.v.Jun'nan'.2012.SATRip.[Один 777].avi
Формат : AVI
Формат/Информация : Audio Video Interleave
Размер файла : 499 Мбайт
Продолжительность : 43 м.
Общий поток : 1591 Кбит/сек
Программа кодирования : VirtualDubMod 1.5.10.3 | www.virtualdub-fr.org || (build 2550/release)
Библиотека кодирования : VirtualDubMod build 2550/release

Видео
Идентификатор : 0
Формат : MPEG-4 Visual
Профиль формата : Advanced Simple@L5
Параметр BVOP формата : 1
Параметр QPel формата : Нет
Параметр GMC формата : Без точки перехода
Параметр матрицы формата : Default (H.263)
Идентификатор кодека : XVID
Идентификатор кодека/Подсказка : XviD
Продолжительность : 43 м.
Битрейт : 1389 Кбит/сек
Ширина : 720 пикселей
Высота : 400 пикселей
Соотношение сторон : 16:9
Частота кадров : 25,000 кадров/сек
Цветовое пространство : YUV
Субдискретизация насыщенности : 4:2:0
Битовая глубина : 8 бит
Тип развёртки : Прогрессивная
Метод сжатия : С потерями
Бит/(Пиксели*Кадры) : 0.193
Размер потока : 435 Мбайт (87%)
Библиотека кодирования : XviD 73

Аудио
Идентификатор : 1
Формат : AC-3
Формат/Информация : Audio Coding 3
Расширение режима : CM (complete main)
Параметр Endianness формата : Big
Идентификатор кодека : 2000
Продолжительность : 43 м.
Вид битрейта : Постоянный
Битрейт : 192 Кбит/сек
Каналы : 2 канала
Расположение каналов : Front: L R
Частота : 48,0 КГц
Метод сжатия : С потерями
Размер потока : 60,2 Мбайт (12%)
Выравнивание : Разделение по промежуткам
Продолжительность промежутка : 40 мс. (1,00 видеокадр)
Время предзагрузки промежутка : 500 мс.
picpicpicpic
Для увеличения картинки щелкните мышкой по превью

Этот торрент недоступен для скачивания без регистрации, однако доступен по публичной magnet-ссылке (источники с публичных трекеров). Перед использованием ссылки прочтите, пожалуйста Пользовательское соглашение, а также как можно дольше оставайтесь на раздаче! Для того, чтобы скачать сам торрент-файл (который видит больше источников), а также для того, чтобы поблагодарить релизера, вам необходимо зарегистрироваться. Если регистрироваться лень - вы можете также попробовать скачать релиз по нашим партнерским ссылкам ниже.

[underverse.su].t63015.torrent
Трекер: Зарегистрирован   [ 13.02.2016 17:46 ]  

Статус: проверено (by makkol at 13.02.2016 21:54)
Поблагодарили: 1 человек
Тип торрента: публичный - доступные источники с открытых трекеров: 
Размер: 499 MB (занимает 0,11 DVDR, для записи нужно 1 болванка DVDR/RW)
 
 
Похожие темы
Форум Тема Автор Торрент Отв. Посл. сооб.
Научно-популярные фильмы Найджел Марвен и его индюшки / My Family and Other Turkeys with Nigel Marven (Алекс Минтон) [2014 г., документальный, познавательный, фауна, SatRip] VO ARI71
0 | 0

0 | 468

1

16.08.2016 21:20


Яндекс.Метрика powered by Sphinx


В Н И М А Н И Е
Сайт не распространяет и не хранит электронные версии произведений, а лишь бесплатно и без коммерческой выгоды (не требуя взамен платы,
SMS и т.д.) предоставляет доступ к создаваемому пользователями каталогу ссылок на торрент-файлы, которые содержат только списки хеш-сумм.
Убедительная просьба с жалобами обращаться напрямую к пользователю, разместившему торрент файл.

Вверх