Loading...
Error

Валерий Ободзинский. И ты простишь мне мой побег [2016 г., документальный, биография, HDTVRip]

Статистика раздачи
Размер:  716 MB   |    Зарегистрирован:  9 месяцев   |    Скачан:  28 раз

Полного источника не было: 1 час 54 минуты

Сидов:  0  |  0 KB/s  ]   Личеров:  0  |  0 KB/s  ]

* - сиды/пиры с внешних источников

   
 
Автор Сообщение

ARI71 Пол:Муж

13-Фев-2016 15:31

Валерий Ободзинский. И ты простишь мне мой побег


Год выпуска: 2016
Жанр: документальный, биография
Страна: Россия, Телекомпания "Останкино"
Режиссер: Ирина Голубева
Сюжет фильма:
О Валерии Ободзинском говорили, что у него "кусок золота в горле". Его голос до сих пор даже искушенные профессионалы называют не иначе, как магический, космический, неземной. Авторы впервые расскажут о том, что в личной драме Валерия не обошлось и без лже-друзей, которые пытались сознательно споить, "подсадить на коньячок" певца с уникальным голосом… Оказывается, Ободзинский очень часто давал так называемые "левые концерты", не учтенные в Росконцерте. Он сам признавался, что иногда зарабатывал колоссальную сумму до 10000 рублей в месяц! Почему его ни разу не "прищучили"?

Вале́рий Влади́мирович Ободзи́нский (24 января 1942, Одесса — 26 апреля 1997, Москва) — популярный советский эстрадный певец, тенор. Заслуженный артист РСФСР, Заслуженный артист Марийской АССР (1973).
Качество видео: HDTVRip

Продолжительность: 00:50:02
Формат: AVI
Видео: XviD, 720x400, ~1799 kbps
Аудио: русский, оригинал, AC3 2.0, ~192.00 kbps

Код:

Общее
Полное имя : D:\Valerij Obodzinskij. I ty prostish' mne moj pobeg.HDTVRip.GeneralFilm.avi
Формат : AVI
Формат/Информация : Audio Video Interleave
Размер файла : 716 Мбайт
Продолжительность : 50 м.
Общий поток : 2002 Кбит/сек
Программа кодирования : VirtualDubMod 1.5.10.3 | www.virtualdub-fr.org || (build 2550/release)
Библиотека кодирования : VirtualDubMod build 2550/release

Видео
Идентификатор : 0
Формат : MPEG-4 Visual
Профиль формата : Advanced Simple@L5
Параметр BVOP формата : 1
Параметр QPel формата : Нет
Параметр GMC формата : Без точки перехода
Параметр матрицы формата : Выборочная
Идентификатор кодека : XVID
Идентификатор кодека/Подсказка : XviD
Продолжительность : 50 м.
Битрейт : 1800 Кбит/сек
Ширина : 720 пикселей
Высота : 400 пикселей
Соотношение сторон : 16:9
Частота кадров : 25,000 кадров/сек
Цветовое пространство : YUV
Субдискретизация насыщенности : 4:2:0
Битовая глубина : 8 бит
Тип развёртки : Прогрессивная
Метод сжатия : С потерями
Бит/(Пиксели*Кадры) : 0.250
Размер потока : 644 Мбайт (90%)
Библиотека кодирования : XviD 73

Аудио
Идентификатор : 1
Формат : AC-3
Формат/Информация : Audio Coding 3
Расширение режима : CM (complete main)
Параметр Endianness формата : Big
Идентификатор кодека : 2000
Продолжительность : 50 м.
Вид битрейта : Постоянный
Битрейт : 192 Кбит/сек
Каналы : 2 канала
Расположение каналов : Front: L R
Частота : 48,0 КГц
Метод сжатия : С потерями
Размер потока : 68,7 Мбайт (10%)
Выравнивание : Разделение по промежуткам
Продолжительность промежутка : 40 мс. (1,00 видеокадр)
Время предзагрузки промежутка : 500 мс.
picpicpicpic
Для увеличения картинки щелкните мышкой по превью

Этот торрент недоступен для скачивания без регистрации, однако доступен по публичной magnet-ссылке (источники с публичных трекеров). Перед использованием ссылки прочтите, пожалуйста Пользовательское соглашение, а также как можно дольше оставайтесь на раздаче! Для того, чтобы скачать сам торрент-файл (который видит больше источников), а также для того, чтобы поблагодарить релизера, вам необходимо зарегистрироваться. Если регистрироваться лень - вы можете также попробовать скачать релиз по нашим партнерским ссылкам ниже.

[underverse.su].t63012.torrent
Трекер: Зарегистрирован   [ 13.02.2016 15:31 ]  

Статус: проверено (by makkol at 13.02.2016 15:42)
Поблагодарили: 4 человека
Тип торрента: публичный - доступные источники с открытых трекеров: 
Размер: 716 MB (занимает 0,16 DVDR, для записи нужно 1 болванка DVDR/RW)
 
 

ARI71 Пол:Муж

15-Фев-2016 18:45

Вот это приятно, что столько человек оценили этот релиз и скачали его!

Яндекс.Метрика powered by Sphinx


В Н И М А Н И Е
Сайт не распространяет и не хранит электронные версии произведений, а лишь бесплатно и без коммерческой выгоды (не требуя взамен платы,
SMS и т.д.) предоставляет доступ к создаваемому пользователями каталогу ссылок на торрент-файлы, которые содержат только списки хеш-сумм.
Убедительная просьба с жалобами обращаться напрямую к пользователю, разместившему торрент файл.

Вверх