Loading...
Error

Тьма / Darkness (Хайме Балагуэро) [2002 г., ужасы, мистика, триллер, BDRip] Dub

Статистика раздачи
Размер:  1,46 GB   |    Зарегистрирован:  9 месяцев   |    Скачан:  15 раз

Полного источника не было: 40 минут

Сидов:  0  |  0 KB/s  ]   Личеров:  0  |  0 KB/s  ]

* - сиды/пиры с внешних источников

   
 
Автор Сообщение

makkol Пол:Муж

13-Фев-2016 13:46

Тьма / Darkness
«Вы больше не боитесь темноты? Напрасно...»


Год выпуска: 2002
Жанр: ужасы, мистика, триллер
Производство: США , Испания [Castelao Producciones, Dimension Films, Filmax International]
Режиссер: Хайме Балагуэро
В ролях: Анна Пакуин, Лена Улин, Айэйн Глен, Джанкарло Джаннини, Феле Мартинес, Стефан Энквист, Ферми Рейксач, Франсеск Пахес, Крэйг Стивенсон, Паула Фернандез
Сюжет фильма:
Вернувшись в Испанию после долгого пребывания в Америке, семья юной Регины поселяется в старом величественном особняке, пустовавшем почти 40 лет. Вскоре ее младшему брату начинает казаться, что в холодных стенах их нового дома присутствует кто-то невидимый и страшный. Пугающие, необъяснимые события и странное поведение отца семейства подсказывают детям, что их мрачная обитель хранит некую зловещую тайну. Близится солнечное затмение. Поставит ли тьма точку в их бесконечных кошмарах или навсегда погрузит их в бездну всепоглощающего ужаса?

  • Мировая премьера: 3 октября 2002
  • Российская премьера: 13 февраля 2003


Качество видео: BDRip

Продолжительность: 01:42:31
Формат: AVI
Видео: XviD, 704x288 (2.44:1), 23.976 fps, 1588 kbps
Аудио: русский, дублированный (лицензия), AC3 5.1, 48 kHz, 448 kbps

Код:

General
Format : AVI
Format/Info : Audio Video Interleave
File size : 1.46 GiB
Duration : 1h 42mn
Overall bit rate : 2 046 Kbps
Writing application : VirtualDubMod 1.5.10.3
Writing library : VirtualDubMod build 2550/release

Video
ID : 0
Format : MPEG-4 Visual
Format profile : Advanced Simple@L5
Format settings, BVOP : Yes
Format settings, QPel : No
Format settings, GMC : No warppoints
Format settings, Matrix : Custom
Codec ID : XVID
Codec ID/Hint : XviD
Duration : 1h 42mn
Bit rate : 1 589 Kbps
Width : 704 pixels
Height : 288 pixels
Display aspect ratio : 2.40:1
Frame rate : 23.976 fps
Color space : YUV
Chroma subsampling : 4:2:0
Bit depth : 8 bits
Scan type : Progressive
Compression mode : Lossy
Bits/(Pixel*Frame) : 0.327
Stream size : 1.14 GiB (78%)
Writing library : XviD 1.2.1 (UTC 2008-12-04)

Audio
ID : 1
Format : AC-3
Format/Info : Audio Coding 3
Mode extension : CM (complete main)
Codec ID : 2000
Duration : 1h 42mn
Bit rate mode : Constant
Bit rate : 448 Kbps
Channel(s) : 6 channels
Channel positions : Front: L C R, Side: L R, LFE
Sampling rate : 48.0 KHz
Bit depth : 16 bits
Compression mode : Lossy
Stream size : 328 MiB (22%)
Alignment : Split accross interleaves
Interleave, duration : 42 ms (1.00 video frame)
Interleave, preload duration : 500 ms
Релиз группы:

picpicpicpicpic
Для увеличения картинки щелкните мышкой по превью

Этот торрент недоступен для скачивания без регистрации, однако доступен по публичной magnet-ссылке (источники с публичных трекеров). Перед использованием ссылки прочтите, пожалуйста Пользовательское соглашение, а также как можно дольше оставайтесь на раздаче! Для того, чтобы скачать сам торрент-файл (который видит больше источников), а также для того, чтобы поблагодарить релизера, вам необходимо зарегистрироваться. Если регистрироваться лень - вы можете также попробовать скачать релиз по нашим партнерским ссылкам ниже.

[underverse.su].t63008.torrent
Трекер: Зарегистрирован   [ 13.02.2016 13:46 ]  

Статус: проверено (by makkol at 16.02.2016 23:33)
Поблагодарили: 1 человек
Тип торрента: публичный - доступные источники с открытых трекеров: 
Размер: 1,46 GB (занимает 0,33 DVDR, для записи нужно 1 болванка DVDR/RW)
 
 
Похожие темы
Форум Тема Автор Торрент Отв. Посл. сооб.
Зарубежное кино [HDDVDRip / BDRip / WEB-DL / HDTV 1080/720р] Тьма / Darkness (Хайме Балагуэро) [2002 г., ужасы, мистика, триллер, BDRip 1080p] Dub + Original + Subs makkol
8 | 0

0 | 268

9

13.02.2016 13:58


Яндекс.Метрика powered by Sphinx


В Н И М А Н И Е
Сайт не распространяет и не хранит электронные версии произведений, а лишь бесплатно и без коммерческой выгоды (не требуя взамен платы,
SMS и т.д.) предоставляет доступ к создаваемому пользователями каталогу ссылок на торрент-файлы, которые содержат только списки хеш-сумм.
Убедительная просьба с жалобами обращаться напрямую к пользователю, разместившему торрент файл.

Вверх