Loading...
Error

В поисках племён охотников / Man Hunt (1 сезон: 1-4 серии из 4) [2011 г., документальный, научно-познавательный, исследование, путешествия, HDTVRip] DUB

Статистика раздачи
Размер:  2,53 GB   |    Зарегистрирован:  9 месяцев   |    Скачан:  6 раз

Полного источника не было: 3 месяца 26 дней

Сидов:  0  |  0 KB/s  ]   Личеров:  0  |  0 KB/s  ]

* - сиды/пиры с внешних источников

   
 
Автор Сообщение

ARI71 Пол:Муж

11-Фев-2016 17:22

В поисках племён охотников / Man Hunt (1 сезон)


Год выпуска: 2011
Жанр: документальный, научно-познавательный, исследование, путешествия
Страна: Новая Зеландия, Natural History New Zealand Ltd.
Режиссер: National Geographic
Сюжет фильма:
Исследователь Хейден Тёрнер отправляется на охоту вместе с племенами, использующими для убийства отравленные стрелы и дротики.
Качество видео: HDTVRip

Продолжительность: 4 x ~ 00:45:00
Формат: AVI
Видео: XviD, 720x400, ~1799 kbps
Аудио: русский, одноголосый [профессиональный], AC3 2.0, ~192.00 kbps
(тех. данные всех серий идентичны)
Документальный дубляж от студии АРК·ТВ
Голос рассказчика - полный дубляж
Интервью - слышна оригинальная речь
1. Охота ради выживания (Убивать чтобы выжить) / Kill To Survive: Племя намал, обитающее на острове Танна, просит у вулкана удачи перед охотой на кабанов, которые служат им как пищей, так и "деньгами".

2. Хранители традиций (Смертельный выстрел) / Death Blow: Хейден идет на охоту с древним племенем, обходящим огромную территорию в поисках обезьян, которых они убивают, выдувая стрелы из трубок.

3. Острозубые кочевники / Sharp Teeth Nomads: Познакомьтесь с народом бака, пигмеями из Камеруна, которые точат зубы, чтобы есть добычу, включая питона, и охотятся с помощью дротиков с ядом.

4. Охота в Калахари (Убийцы из Калахари) / Kalahari Killers: Хейден следует за бушменами племени сан, которые используют второй язык, состоящий из щелчков, только тогда, когда они охотятся.

Код:

Общее
Полное имя : D:\В поисках племён охотников HDTVRip Fандорин\E01 Охота ради выживания HDTVRip Fандорин.avi
Формат : AVI
Формат/Информация : Audio Video Interleave
Размер файла : 631 Мбайт
Продолжительность : 44 м.
Общий поток : 2001 Кбит/сек
Программа кодирования : VirtualDubMod 1.5.10.2 (build 2540/release)
Библиотека кодирования : VirtualDubMod build 2540/release

Видео
Идентификатор : 0
Формат : MPEG-4 Visual
Профиль формата : Advanced Simple@L5
Параметр BVOP формата : 2
Параметр QPel формата : Нет
Параметр GMC формата : Без точки перехода
Параметр матрицы формата : Default (H.263)
Идентификатор кодека : XVID
Идентификатор кодека/Подсказка : XviD
Продолжительность : 44 м.
Битрейт : 1799 Кбит/сек
Ширина : 720 пикселей
Высота : 400 пикселей
Соотношение сторон : 16:9
Частота кадров : 25,000 кадров/сек
Цветовое пространство : YUV
Субдискретизация насыщенности : 4:2:0
Битовая глубина : 8 бит
Тип развёртки : Прогрессивная
Метод сжатия : С потерями
Бит/(Пиксели*Кадры) : 0.250
Размер потока : 568 Мбайт (90%)
Библиотека кодирования : XviD 1.2.0.dev47 (UTC 2006-11-01)

Аудио
Идентификатор : 1
Формат : AC-3
Формат/Информация : Audio Coding 3
Расширение режима : CM (complete main)
Параметр Endianness формата : Big
Идентификатор кодека : 2000
Продолжительность : 44 м.
Вид битрейта : Постоянный
Битрейт : 192 Кбит/сек
Каналы : 2 канала
Расположение каналов : Front: L R
Частота : 48,0 КГц
Метод сжатия : С потерями
Размер потока : 60,6 Мбайт (10%)
Выравнивание : Разделение по промежуткам
Продолжительность промежутка : 40 мс. (1,00 видеокадр)
Время предзагрузки промежутка : 500 мс.
Релиз группы:

picpicpicpicpic
Для увеличения картинки щелкните мышкой по превью

Этот торрент недоступен для скачивания без регистрации, однако доступен по публичной magnet-ссылке (источники с публичных трекеров). Перед использованием ссылки прочтите, пожалуйста Пользовательское соглашение, а также как можно дольше оставайтесь на раздаче! Для того, чтобы скачать сам торрент-файл (который видит больше источников), а также для того, чтобы поблагодарить релизера, вам необходимо зарегистрироваться. Если регистрироваться лень - вы можете также попробовать скачать релиз по нашим партнерским ссылкам ниже.

[underverse.su].t62913.torrent
Трекер: Зарегистрирован   [ 11.02.2016 17:22 ]  

Статус: проверено (by makkol at 11.02.2016 22:16)
Поблагодарили: пока никто не поблагодарил...
Тип торрента: публичный - доступные источники с открытых трекеров: 
Размер: 2,53 GB (занимает 0,58 DVDR, для записи нужно 1 болванка DVDR/RW)
 
 
Похожие темы
Форум Тема Автор Торрент Отв. Посл. сооб.
Зарубежное кино [DVDRip, Low-Res HDRip, и т.д.] В поисках блаженства / Finding Bliss (Джули Дэвис) [2009 г., мелодрама, комедия, DVDRip] VO [den904] Паукан
0 | 1

0 | 1890

8

21.11.2013 14:09

Зарубежное кино [DVDRip, Low-Res HDRip, и т.д.] В поисках радости / Finding Joy (Карло Де Роза) [2013 г., комедия, драма, WEB-DLRip] MVO (НТВ+) 90ytr90
0 | 0

0 | 1864

8

24.11.2013 12:00

Зарубежное кино [DVDRip, Low-Res HDRip, и т.д.] В поисках Фанни / Finding Fanny (Хоми Ададжаниа / Homi Adajania) [2014 г., драма, мелодрама, комедия, DVDRip] MVO (ICG) + Original (Hin) + Sub (Rus) 90ytr90
1 | 1

0 | 462

1

25.01.2015 13:27

Зарубежное кино [DVDRip, Low-Res HDRip, и т.д.] В поисках галактики / Galaxy Quest (Дин Паризо / Dean Parisot) [1999 г., фантастика, комедия, приключения, BDRip] MVO + Original (Eng) + AVO (Ю.Живов) + MVO (ОРТ) 90ytr90
0 | 0

0 | 247

4

31.01.2015 21:22

Зарубежное кино [DVDRip, Low-Res HDRip, и т.д.] В поисках галактики / Galaxy Quest (Дин Паризо / Dean Parisot) [1999 г., фантастика, комедия, приключения, BDRip] MVO + Original (Eng) + Sub (Rus, Eng) 90ytr90
3 | 0

0 | 288

9

31.01.2015 21:23

Зарубежное кино [DVDRip, Low-Res HDRip, и т.д.] В поисках Рождества / Finding Christmas (Харви Кросслэнд) [2013 г., мелодрама, SatRip] MVO makkol
2 | 0

0 | 323

1

17.06.2015 22:09

Зарубежное кино [DVDRip, Low-Res HDRip, и т.д.] В поисках Бобби Фишера / Выбор игры / Searching for Bobby Fischer (Стивен Зеллиан) [1993 г., драма, биография, WEB-DLRip] DVO + MVO + VO + Original + Subs makkol
14 | 3

0 | 482

4

08.03.2016 15:25

Зарубежное кино [DVDRip, Low-Res HDRip, и т.д.] В поисках чудес / Looking for Miracles (Кевин Салливан ) [1989 г., драма, семейный, DVDRip] VO + Original makkol
2 | 0

0 | 619

3

12.03.2016 11:49

T Зарубежное кино [DVDRip, Low-Res HDRip, и т.д.] В поисках огня / Digging for Fire (Джо Сванберг) [2015 г., драма, WEB-DLRip] MVO makkol
1 | 0

0 | 724

22

13.03.2016 23:32

Зарубежные мультфильмы В поисках Жу / Quest for Zhu (Боб Дусетте ) [2011 г., мультфильм,приключения,семейный, HDRip] МУХА~
0 | 0

1 | 1338

20

30.10.2011 12:32

ARI71 Пол:Муж

11-Фев-2016 17:34

Качаем, смотрим, и пожалуйста как можно дольше остаёмся на раздаче! Приятного просмотра!

Яндекс.Метрика powered by Sphinx


В Н И М А Н И Е
Сайт не распространяет и не хранит электронные версии произведений, а лишь бесплатно и без коммерческой выгоды (не требуя взамен платы,
SMS и т.д.) предоставляет доступ к создаваемому пользователями каталогу ссылок на торрент-файлы, которые содержат только списки хеш-сумм.
Убедительная просьба с жалобами обращаться напрямую к пользователю, разместившему торрент файл.

Вверх