Loading...
Error

Охота / The Hunt (1-7 серии из 7) [2015 г., документальный, природа, HDRip] DVO

Статистика раздачи
Размер:  4,83 GB   |    Зарегистрирован:  8 месяцев   |    Скачан:  6 раз

Полного источника не было: 6 дней

Сидов:  0  |  0 KB/s  ]   Личеров:  0  |  0 KB/s  ]

* - сиды/пиры с внешних источников

   
 
Автор Сообщение

ARI71 Пол:Муж

11-Фев-2016 16:09

Охота / The Hunt (1-7 серии из 7)


Год выпуска: 2015
Жанр: документальный, природа
Страна: Великобритания, ВВС
Режиссер: Дэвид Аттенборо
Сюжет фильма:
В этом выдающемся документальном сериале в деталях рассмотрены отношения между хищниками и их добычей. Вместо того, чтобы сосредотачиваться на кровавых подробностях охоты, в сериале с беспрецедентной тщательностью исследуются методы, с помощью которых хищники добывают еду, а их добыча старается избежать смерти.



Качество видео: HDRip
Продолжительность: 7 х ~ 00:58:00
Формат: AVI
Видео: XviD, 720x400, ~1481 kbps
Аудио: русский, двухголосый закадровый (профессиональный) AlexFilm, AC3 5.1, ~192.00 kbps
(тех. данные всех серий идентичны)
Внимание! Раздача ведётся путём добавления новых серий; при каждом добавлении создаётся новый торрент. Чтобы начать докачку новой серии, пользователям необходимо сделать следующее: (1) остановить скачивание, (2) удалить старый торрент у себя из клиента (старые серии удалять не надо), (3) скачать новый торрент и запустить его у себя в клиенте вместо старого, при этом указать клиенту путь в старую папку куда и должно происходить скачивание новых серий.

Ваш клиент при этом должен произвести хеширование (проверку) старой папки (если не производит сам - помогите ему сделать это), и будет докачивать только те серии которых у вас ещё нет. Старые серии при этом не удаляются, а продолжают раздаваться!

Eсли вы уже удалили старые серии, то предотвратить повторную закачку старых серий можно, отжав галочку в соответсвующих местах при запуске нового торрента.

Код:

Общее
Полное имя : D:\The Hunt (S01) AlexFilm\The Hunt 1.01.HDRip.AlexFilm.avi
Формат : AVI
Формат/Информация : Audio Video Interleave
Размер файла : 699 Мбайт
Продолжительность : 58 м.
Общий поток : 1682 Кбит/сек
Программа кодирования : VirtualDubMod 1.5.10.3 | www.virtualdub-fr.org || (build 2550/release)
Библиотека кодирования : VirtualDubMod build 2550/release

Видео
Идентификатор : 0
Формат : MPEG-4 Visual
Профиль формата : Advanced Simple@L5
Параметр BVOP формата : 2
Параметр QPel формата : Нет
Параметр GMC формата : Без точки перехода
Параметр матрицы формата : Default (MPEG)
Идентификатор кодека : XVID
Идентификатор кодека/Подсказка : XviD
Продолжительность : 58 м.
Битрейт : 1481 Кбит/сек
Ширина : 720 пикселей
Высота : 400 пикселей
Соотношение сторон : 16:9
Частота кадров : 25,000 кадров/сек
Цветовое пространство : YUV
Субдискретизация насыщенности : 4:2:0
Битовая глубина : 8 бит
Тип развёртки : Прогрессивная
Метод сжатия : С потерями
Бит/(Пиксели*Кадры) : 0.206
Размер потока : 616 Мбайт (88%)
Библиотека кодирования : XviD 1.2.1 (UTC 2008-12-04)

Аудио
Идентификатор : 1
Формат : AC-3
Формат/Информация : Audio Coding 3
Расширение режима : CM (complete main)
Параметр Endianness формата : Big
Идентификатор кодека : 2000
Продолжительность : 58 м.
Вид битрейта : Постоянный
Битрейт : 192 Кбит/сек
Каналы : 6 каналов
Расположение каналов : Front: L C R, Side: L R, LFE
Частота : 48,0 КГц
Метод сжатия : С потерями
Размер потока : 79,8 Мбайт (11%)
Выравнивание : Разделение по промежуткам
Продолжительность промежутка : 40 мс. (1,00 видеокадр)
Время предзагрузки промежутка : 500 мс.
1. Сложнейшие задачи
2. В тисках времён года
3. Игра в прятки
4. Голод в море
5. Негде спрятаться
6. Наперегонки со временем
7. Жизнь рядом с хищниками
picpicpicpic
pic
Для увеличения картинки щелкните мышкой по превью

Этот торрент недоступен для скачивания без регистрации, однако доступен по публичной magnet-ссылке (источники с публичных трекеров). Перед использованием ссылки прочтите, пожалуйста Пользовательское соглашение, а также как можно дольше оставайтесь на раздаче! Для того, чтобы скачать сам торрент-файл (который видит больше источников), а также для того, чтобы поблагодарить релизера, вам необходимо зарегистрироваться. Если регистрироваться лень - вы можете также попробовать скачать релиз по нашим партнерским ссылкам ниже.

[underverse.su].t64749.torrent
Трекер: Зарегистрирован   [ 30.03.2016 13:55 ]  

Статус: проверено (by makkol at 15.04.2016 11:59)
Поблагодарили: 1 человек
Тип торрента: публичный - доступные источники с открытых трекеров: 
Размер: 4,83 GB (занимает 1,1 DVDR, для записи нужно 2 болванки DVDR/RW)
 
 


Последний раз редактировалось: ARI71 (30.03.2016 14:14), всего редактировалось 5 раз(а)

ARI71 Пол:Муж

11-Фев-2016 16:15

Приятного просмотра! 30.03.16 - добавлена 7-я серия! Обновите торрент-файл.

Яндекс.Метрика powered by Sphinx


В Н И М А Н И Е
Сайт не распространяет и не хранит электронные версии произведений, а лишь бесплатно и без коммерческой выгоды (не требуя взамен платы,
SMS и т.д.) предоставляет доступ к создаваемому пользователями каталогу ссылок на торрент-файлы, которые содержат только списки хеш-сумм.
Убедительная просьба с жалобами обращаться напрямую к пользователю, разместившему торрент файл.

Вверх