Loading...
Error

Хранители земли леопарда (1-5 серии из 5) [2016 г., документальный, научно-познавательный, флора, фауна, WEB-DL 720p]

Статистика раздачи
Размер:  2,4 GB   |    Зарегистрирован:  9 месяцев   |    Скачан:  6 раз

Полного источника не было: 1 месяц 18 дней

Сидов:  0  |  0 KB/s  ]   Личеров:  0  |  0 KB/s  ]

* - сиды/пиры с внешних источников

   
 
Автор Сообщение

ARI71 Пол:Муж

11-Фев-2016 12:54

Хранители земли леопарда (1-5 серии из 5)


Год выпуска: 2016
Жанр: документальный, научно-познавательный, флора, фауна
Страна: Россия, RTD
Режиссер: Айк Ордян
Сюжет фильма:
Тревожный звонок – и инспекторы национального парка вновь выезжают в тайгу. Браконьеры, охотящиеся на дальневосточного леопарда, не дают покоя ни днём, ни ночью. До середины ХХ века ареал обитания этого редчайшего представителя семейства кошачьих был весьма велик: весь Корейский полуостров, Приморье и две провинции Китая. Сегодня леопард водится только в России. В природе сохранилось всего несколько десятков особей, из них большая часть – на территории парка. Нелёгкой работе его сотрудников, которые изучают и самоотверженно оберегают этих уникальных кошек, посвящён сериал «Хранители земли леопарда».
Качество видео: WEB-DL 720p

Продолжительность: 5 х ~00:26:00
Формат: МР4
Видео: MPEG-4 AVC, 1280х720, ~2187 kbps
Аудио: русский, AAC 2.0, 192 kbps
(тех. данные всех серий идентичны)

Код:

Общее
Полное имя : D:\Хранители земли леопарда\Хранители.земли.леопарда.1 серия.кэп.mp4
Формат : MPEG-4
Профиль формата : Base Media / Version 2
Идентификатор кодека : mp42
Размер файла : 449 Мбайт
Продолжительность : 26 м.
Режим общего битрейта : Переменный
Общий поток : 2382 Кбит/сек
Дата кодирования : UTC 2016-01-25 13:11:46
Дата пометки : UTC 2016-01-25 13:11:46
gsst : 0
gstd : 1582903

Видео
Идентификатор : 1
Формат : AVC
Формат/Информация : Advanced Video Codec
Профиль формата : High@L3.1
Параметр CABAC формата : Да
Параметр ReFrames формата : 1 кадр
Идентификатор кодека : avc1
Идентификатор кодека/Информация : Advanced Video Coding
Продолжительность : 26 м.
Битрейт : 2187 Кбит/сек
Максимальный битрейт : 9429 Кбит/сек
Ширина : 1280 пикселей
Высота : 720 пикселей
Соотношение сторон : 16:9
Режим частоты кадров : Постоянный
Частота кадров : 25,000 кадров/сек
Цветовое пространство : YUV
Субдискретизация насыщенности : 4:2:0
Битовая глубина : 8 бит
Тип развёртки : Прогрессивная
Бит/(Пиксели*Кадры) : 0.095
Размер потока : 413 Мбайт (92%)
Дата пометки : UTC 2016-01-25 13:12:26
Цветовой диапазон : Limited
Основные цвета : BT.709
Характеристики трансфера : BT.709
Коэффициенты матрицы : BT.709

Аудио
Идентификатор : 2
Формат : AAC
Формат/Информация : Advanced Audio Codec
Профиль формата : LC
Идентификатор кодека : 40
Продолжительность : 26 м.
Вид битрейта : Переменный
Битрейт : 192 Кбит/сек
Максимальный битрейт : 201 Кбит/сек
Каналы : 2 канала
Расположение каналов : Front: L R
Частота : 44,1 КГц
Метод сжатия : С потерями
Размер потока : 36,2 Мбайт (8%)
Заголовок : IsoMedia File Produced by Google, 5-11-2011
Язык : English
Дата кодирования : UTC 2016-01-25 13:12:05
Дата пометки : UTC 2016-01-25 13:12:26
picpicpicpic
Для увеличения картинки щелкните мышкой по превью

Этот торрент недоступен для скачивания без регистрации, однако доступен по публичной magnet-ссылке (источники с публичных трекеров). Перед использованием ссылки прочтите, пожалуйста Пользовательское соглашение, а также как можно дольше оставайтесь на раздаче! Для того, чтобы скачать сам торрент-файл (который видит больше источников), а также для того, чтобы поблагодарить релизера, вам необходимо зарегистрироваться. Если регистрироваться лень - вы можете также попробовать скачать релиз по нашим партнерским ссылкам ниже.

[underverse.su].t62899.torrent
Трекер: Зарегистрирован   [ 11.02.2016 12:54 ]  

Статус: проверено (by makkol at 11.02.2016 13:13)
Поблагодарили: пока никто не поблагодарил...
Тип торрента: публичный - доступные источники с открытых трекеров: 
Размер: 2,4 GB (занимает 0,55 DVDR, для записи нужно 1 болванка DVDR/RW)
 
 
Похожие темы
Форум Тема Автор Торрент Отв. Посл. сооб.
Зарубежное кино [DVDRip, Low-Res HDRip, и т.д.] Хранители / Watchmen (Зак Снайдер) [2009 г., фантастика, боевик, триллер, драма, DVDRip (AC3 5.1)] RuLaN
0 | 0

11 | 3406

51

11.08.2009 19:19

Зарубежное кино [DVDRip, Low-Res HDRip, и т.д.] Хранители / Watchmen (Зак Снайдер) [2009 г., фантастика, боевик, детектив, BDRip] Dub goldrin
0 | 0

2 | 1522

9

08.06.2013 11:37

Наше кино [DVDRip, Low-Res HDRip, и т.д.] Хранители сети (Дмитрий Матов) [2010 г., фантастика, боевик, мелодрама, приключения, DVDRip] eXtatik
0 | 0

0 | 1019

16

03.06.2011 10:12

Мультфильмы HQ Хранители снов / Rise of the Guardians (Питер Рэмси) [2012 г., мультфильм, фэнтези, приключения, семейный, BDRip] Dub (Rus,Ukr) + Original + Subs (Rus,Ukr,Eng) HQ Underverse HQ Underverse
1 | 0

2 | 1618

52

30.03.2013 09:04

Зарубежные мультфильмы Хранители снов / Rise of the Guardians (Питер Рэмси) [2012 г., мультфильм, фэнтези, приключения, семейный, BDRip] Dub 90ytr90
6 | 0

0 | 1471

83

21.03.2013 14:35

Зарубежные мультфильмы Хранители снов / Rise of the Guardians (Питер Рэмси) [2012 г., мультфильм, фэнтези, приключения, семейный, BDRip] Dub 90ytr90
3 | 0

0 | 597

15

21.03.2013 14:45

Зарубежные мультфильмы Хранители снов / Rise of the Guardians (Питер Рэмси) [2012 г., мультфильм, фэнтези, приключения, семейный, BDRip] Dub + Eng 90ytr90
2 | 0

2 | 687

43

15.05.2013 21:15

Научно-популярные фильмы Хранители дикой природы / Keeper of the Wilderness (Роберт Райхл, Эрик Балаж) [2010 г., документальный, природа, флора, фауна, SatRip] Dub + Original (Slo) ARI71
1 | 0

0 | 419

1

02.09.2016 16:08

Релизы Хранители 2: Последний Секрет Ордена / The Keepers 2: The Order's Last Secret CE [2013 г., Квест, поиск предметов, головоломка] RUS [L] Чертёнок
3 | 0

0 | 1998

16

25.02.2013 12:06

* Архив Хранители / Watchmen (Зак Снайдер) [2009 г., фантастика, боевик, триллер, драма, DVDRip] ZondeR

8 | 1646

29.08.2010 23:52


Яндекс.Метрика powered by Sphinx


В Н И М А Н И Е
Сайт не распространяет и не хранит электронные версии произведений, а лишь бесплатно и без коммерческой выгоды (не требуя взамен платы,
SMS и т.д.) предоставляет доступ к создаваемому пользователями каталогу ссылок на торрент-файлы, которые содержат только списки хеш-сумм.
Убедительная просьба с жалобами обращаться напрямую к пользователю, разместившему торрент файл.

Вверх