Loading...
Error

Покорение новых земель / Land Rush (1 сезон: 1-6 серии из 6) [2015 г., документальный, приключения, строительство, выживание, HDTVRip] VO

Статистика раздачи
Размер:  3,21 GB   |    Зарегистрирован:  9 месяцев   |    Скачан:  6 раз

Полного источника не было: 1 месяц 18 дней

Сидов:  0  |  0 KB/s  ]   Личеров:  0  |  0 KB/s  ]

* - сиды/пиры с внешних источников

   
 
Автор Сообщение

ARI71 Пол:Муж

10-Фев-2016 21:02

Покорение новых земель / Land Rush (1 сезон)


Год выпуска: 2015
Жанр: документальный, приключения, строительство, выживание
Страна: США, Discovery Communications, LLC
Режиссер: Discovery
Сюжет фильма:
Аляска – пустынный северный край, известный своими холодами, снегами и многочисленными дикими животными. Здесь велика вероятность встретиться с разнообразной северной фауной от енотов и оленей до медведей и орланов, зимой можно увидеть полярное сияние, а до многих населённых пунктов добраться можно только на вертолётах – дороги до них просто не проложены. Однако четверо американцев решились стать первыми переселенцами неосвоенных земель и попробовать пожить здесь наедине с природой и развить натуральное хозяйство. Каждый из них преследует свои цели: Тиффани хочет воспитать сына вдали от искушений цивилизации, Дэнни мечтает найти применение своему таланту дровосека, моряк Грег едет отдыхать от постоянных плаваний, а Джим, ветеран войны, просто планирует наконец найти своё место в жизни. Отказавшись от привычной комфортной жизни, они едут на север, чтобы построить свой новый дом.
Качество видео: HDTVRip

Продолжительность: 6 x ~ 00:44:00
Формат: AVI
Видео: XviD, 720x400, ~1540 kbps
Аудио: русский, одноголосый [профессиональный], AC3 2.0, ~192.00 kbps
(тех. данные всех серий идентичны)
01. Начало положено.
02. Суровая реальность.
03. Застой.
04. Точка невозврата.
05. Холодное дыхание зимы.
06. Последний шанс.

Код:

Общее
Полное имя : D:\Покорение новых земель GeneralFilm\01 Покорение новых земель GeneralFilm.avi
Формат : AVI
Формат/Информация : Audio Video Interleave
Размер файла : 549 Мбайт
Продолжительность : 44 м.
Общий поток : 1743 Кбит/сек
Программа кодирования : VirtualDubMod 1.5.10.3 | www.virtualdub-fr.org || (build 2550/release)
Библиотека кодирования : VirtualDubMod build 2550/release

Видео
Идентификатор : 0
Формат : MPEG-4 Visual
Профиль формата : Advanced Simple@L5
Параметр BVOP формата : 1
Параметр QPel формата : Нет
Параметр GMC формата : Без точки перехода
Параметр матрицы формата : Выборочная
Идентификатор кодека : XVID
Идентификатор кодека/Подсказка : XviD
Продолжительность : 44 м.
Битрейт : 1541 Кбит/сек
Ширина : 720 пикселей
Высота : 400 пикселей
Соотношение сторон : 16:9
Частота кадров : 25,000 кадров/сек
Цветовое пространство : YUV
Субдискретизация насыщенности : 4:2:0
Битовая глубина : 8 бит
Тип развёртки : Прогрессивная
Метод сжатия : С потерями
Бит/(Пиксели*Кадры) : 0.214
Размер потока : 486 Мбайт (88%)
Библиотека кодирования : XviD 73

Аудио
Идентификатор : 1
Формат : AC-3
Формат/Информация : Audio Coding 3
Расширение режима : CM (complete main)
Параметр Endianness формата : Big
Идентификатор кодека : 2000
Продолжительность : 44 м.
Вид битрейта : Постоянный
Битрейт : 192 Кбит/сек
Каналы : 2 канала
Расположение каналов : Front: L R
Частота : 48,0 КГц
Метод сжатия : С потерями
Размер потока : 60,5 Мбайт (11%)
Выравнивание : Разделение по промежуткам
Продолжительность промежутка : 40 мс. (1,00 видеокадр)
Время предзагрузки промежутка : 500 мс.












Этот торрент недоступен для скачивания без регистрации, однако доступен по публичной magnet-ссылке (источники с публичных трекеров). Перед использованием ссылки прочтите, пожалуйста Пользовательское соглашение, а также как можно дольше оставайтесь на раздаче! Для того, чтобы скачать сам торрент-файл (который видит больше источников), а также для того, чтобы поблагодарить релизера, вам необходимо зарегистрироваться. Если регистрироваться лень - вы можете также попробовать скачать релиз по нашим партнерским ссылкам ниже.

[underverse.su].t62890.torrent
Трекер: Зарегистрирован   [ 10.02.2016 21:02 ]  

Статус: проверено (by makkol at 10.02.2016 22:35)
Поблагодарили: пока никто не поблагодарил...
Тип торрента: публичный - доступные источники с открытых трекеров: 
Размер: 3,21 GB (занимает 0,73 DVDR, для записи нужно 1 болванка DVDR/RW)
 
 
Похожие темы
Форум Тема Автор Торрент Отв. Посл. сооб.
Другие фильмы Покорение Семи морей / Conquest of the Seven Seas (1-2 серии из 2) / (Хольгер Пройсe, Ханес Шулер) [2014 г., документальный, игровой, история, познавательный, SatRip] VO ARI71
3 | 0

1 | 365

2

09.10.2016 09:37


Яндекс.Метрика powered by Sphinx


В Н И М А Н И Е
Сайт не распространяет и не хранит электронные версии произведений, а лишь бесплатно и без коммерческой выгоды (не требуя взамен платы,
SMS и т.д.) предоставляет доступ к создаваемому пользователями каталогу ссылок на торрент-файлы, которые содержат только списки хеш-сумм.
Убедительная просьба с жалобами обращаться напрямую к пользователю, разместившему торрент файл.

Вверх