Loading...
Error

Добровольцы [2009 г., документальный, война, авиация, TVRip]

Статистика раздачи
Размер:  598 MB   |    Зарегистрирован:  9 месяцев   |    Скачан:  10 раз

Полного источника не было: 1 месяц 17 дней

Сидов:  0  |  0 KB/s  ]   Личеров:  0  |  0 KB/s  ]

* - сиды/пиры с внешних источников

   
 
Автор Сообщение

ARI71 Пол:Муж

10-Фев-2016 19:36

Добровольцы


Год выпуска: 2009
Жанр: документальный, война, авиация
Страна: Россия , ООО «КиноАртель»
Режиссер: Иван Твердовский, Евгений Кокусев
Сюжет фильма:
Гражданская война в Испании и Китае. Кто и на чьей стороне воевал? Война в соседнем государстве - как это сказывалось? Что помнят сейчас? Фильм рассказывает об участии советских летчиков-добровольцев в этих войнах. Использованы фотографии и кинохроника прошлых лет.
Качество видео: TVRip

Продолжительность: 2 x ~ 00:26:00
Формат: AVI
Видео: XviD, 720x400, ~1403 kbps
Аудио: русский, оригинал, AC3 2.0, ~192.00 kbps
(тех. данные всех серий идентичны)
01. Испания
02. Китай

Код:

Общее
Полное имя : D:\Dobrovol'cy.2009.IPTVRip.[Один 777]\01.Ispanija.avi
Формат : AVI
Формат/Информация : Audio Video Interleave
Размер файла : 299 Мбайт
Продолжительность : 26 м.
Общий поток : 1605 Кбит/сек
Программа кодирования : VirtualDubMod 1.5.10.3 | www.virtualdub-fr.org || (build 2550/release)
Библиотека кодирования : VirtualDubMod build 2550/release

Видео
Идентификатор : 0
Формат : MPEG-4 Visual
Профиль формата : Advanced Simple@L5
Параметр BVOP формата : 1
Параметр QPel формата : Нет
Параметр GMC формата : Без точки перехода
Параметр матрицы формата : Default (H.263)
Идентификатор кодека : XVID
Идентификатор кодека/Подсказка : XviD
Продолжительность : 26 м.
Битрейт : 1404 Кбит/сек
Ширина : 720 пикселей
Высота : 400 пикселей
Соотношение сторон : 16:9
Частота кадров : 25,000 кадров/сек
Цветовое пространство : YUV
Субдискретизация насыщенности : 4:2:0
Битовая глубина : 8 бит
Тип развёртки : Прогрессивная
Метод сжатия : С потерями
Бит/(Пиксели*Кадры) : 0.195
Размер потока : 262 Мбайт (87%)
Библиотека кодирования : XviD 73

Аудио
Идентификатор : 1
Формат : AC-3
Формат/Информация : Audio Coding 3
Расширение режима : CM (complete main)
Параметр Endianness формата : Big
Идентификатор кодека : 2000
Продолжительность : 26 м.
Вид битрейта : Постоянный
Битрейт : 192 Кбит/сек
Каналы : 2 канала
Расположение каналов : Front: L R
Частота : 48,0 КГц
Метод сжатия : С потерями
Размер потока : 35,8 Мбайт (12%)
Выравнивание : Разделение по промежуткам
Продолжительность промежутка : 40 мс. (1,00 видеокадр)
Время предзагрузки промежутка : 500 мс.










Этот торрент недоступен для скачивания без регистрации, однако доступен по публичной magnet-ссылке (источники с публичных трекеров). Перед использованием ссылки прочтите, пожалуйста Пользовательское соглашение, а также как можно дольше оставайтесь на раздаче! Для того, чтобы скачать сам торрент-файл (который видит больше источников), а также для того, чтобы поблагодарить релизера, вам необходимо зарегистрироваться. Если регистрироваться лень - вы можете также попробовать скачать релиз по нашим партнерским ссылкам ниже.

[underverse.su].t62889.torrent
Трекер: Зарегистрирован   [ 10.02.2016 19:36 ]  

Статус: проверено (by makkol at 10.02.2016 22:33)
Поблагодарили: 3 человека
Тип торрента: публичный - доступные источники с открытых трекеров: 
Размер: 598 MB (занимает 0,13 DVDR, для записи нужно 1 болванка DVDR/RW)
 
 

ARI71 Пол:Муж

10-Фев-2016 19:55

Качаем, смотрим, благодарим!

Яндекс.Метрика powered by Sphinx


В Н И М А Н И Е
Сайт не распространяет и не хранит электронные версии произведений, а лишь бесплатно и без коммерческой выгоды (не требуя взамен платы,
SMS и т.д.) предоставляет доступ к создаваемому пользователями каталогу ссылок на торрент-файлы, которые содержат только списки хеш-сумм.
Убедительная просьба с жалобами обращаться напрямую к пользователю, разместившему торрент файл.

Вверх