Loading...
Error

Клим [1-8 серии из 8] (Карен Оганесян) [2016 г., драма, криминал, триллер, WEB-DLRip]

Статистика раздачи
Размер:  5,29 GB   |    Зарегистрирован:  9 месяцев   |    Скачан:  32 раза

Полного источника не было: 13 часов

Сидов:  0  |  0 KB/s  ]   Личеров:  0  |  0 KB/s  ]

* - сиды/пиры с внешних источников

   
 
Автор Сообщение

nemos Пол:Муж

10-Фев-2016 19:25

Клим


Год выпуска: 2016
Дата премьеры в РФ: 31 января 2016
Жанр: драма, криминал, триллер
Страна: Россия
Режиссер: Карен Оганесян
В ролях: Константин Лавроненко, Дарья Мингазетдинова, Анна Вартанян, Павел Чинарёв, Сергей Шнырёв, Сергей Кудрявцев, Виталий Коваленко, Татьяна Колганова, Евгений Добряков, Григорий Чабан, Денис Старков, Валерия Кожевникова, Олег Рязанцев, Иван Николаев, Никита Панфилов, Антон Багров, Алексей Фокин и др.
Сюжет фильма:
Клим Рощин, опытный питерский следователь с уникальными навыками ученого-этолога, приступает к расследованию двойного убийства. Единственной свидетельницей преступления является дочь погибшей супружеской пары, Алиса. В деле много странностей, которые настораживают Клима. Работа поглощает все его время, поэтому он не сразу замечает, что его отношения с женой Зоей на грани краха. Уход Зои к адвокату Марку Литваку потрясает Рощина. Алиса использует эту ситуацию и начинает с Климом странную и опасную игру. Первым шагом в ней становится визит к фигуранту предыдущего дела Клима, Манскому.


Качество видео: WEB-DLRip

Продолжительность: 00:50:00 серия
Формат: AVI
Видео: XviD, 720x400, 1498 kbps
Аудио: русский, AC3 2.0, 192 kbps

Код:

 Формат                                   : AVI
Формат/Информация                        : Audio Video Interleave
Размер файла                             : 634 Мбайт
Продолжительность                        : 52 м.
Общий поток                              : 1700 Кбит/сек
Программа кодирования                    : VirtualDubMod 1.5.10.3 | www.virtualdub-fr.org || (build 2550/release)
Библиотека кодирования                   : VirtualDubMod build 2550/release

Видео
Идентификатор                            : 0
Формат                                   : MPEG-4 Visual
Профиль формата                          : Advanced Simple@L5
Параметр BVOP формата                    : 4
Параметр QPel формата                    : Нет
Параметр GMC формата                     : Без точки перехода
Параметр матрицы формата                 : Default (MPEG)
Идентификатор кодека                     : XVID
Идентификатор кодека/Подсказка           : XviD
Продолжительность                        : 52 м.
Битрейт                                  : 1498 Кбит/сек
Ширина                                   : 720 пикселей
Высота                                   : 400 пикселей
Соотношение сторон                       : 16:9
Частота кадров                           : 25,000 кадров/сек
Цветовое пространство                    : YUV
Субдискретизация насыщенности            : 4:2:0
Битовая глубина                          : 8 бит
Тип развёртки                            : Прогрессивная
Метод сжатия                             : С потерями
Бит/(Пиксели*Кадры)                      : 0.208
Размер потока                            : 559 Мбайт (88%)
Библиотека кодирования                   : XviD 1.2.1 (UTC 2008-12-04)

Аудио
Идентификатор                            : 1
Формат                                   : AC-3
Формат/Информация                        : Audio Coding 3
Расширение режима                        : CM (complete main)
Параметр Endianness формата              : Big
Идентификатор кодека                     : 2000
Продолжительность                        : 52 м.
Вид битрейта                             : Постоянный
Битрейт                                  : 192 Кбит/сек
Каналы                                   : 2 канала
Расположение каналов                     : Front: L R
Частота                                  : 48,0 КГц
Битовая глубина                          : 16 бит
Метод сжатия                             : С потерями
Размер потока                            : 71,6 Мбайт (11%)
Выравнивание                             : Разделение по промежуткам
Продолжительность промежутка             : 40  мс. (1,00 видеокадр)
Время предзагрузки промежутка            : 500  мс.
 
picpicpic
Для увеличения картинки щелкните мышкой по превью

Этот торрент недоступен для скачивания без регистрации, однако доступен по публичной magnet-ссылке (источники с публичных трекеров). Перед использованием ссылки прочтите, пожалуйста Пользовательское соглашение, а также как можно дольше оставайтесь на раздаче! Для того, чтобы скачать сам торрент-файл (который видит больше источников), а также для того, чтобы поблагодарить релизера, вам необходимо зарегистрироваться. Если регистрироваться лень - вы можете также попробовать скачать релиз по нашим партнерским ссылкам ниже.

[underverse.su].t62888.torrent
Трекер: Зарегистрирован   [ 10.02.2016 19:25 ]  

Статус: проверено (by nemos at 10.02.2016 19:35)
Поблагодарили: 4 человека
Тип торрента: публичный - доступные источники с открытых трекеров: 
Размер: 5,29 GB (занимает 1,21 DVDR, для записи нужно 2 болванки DVDR/RW)
 
 
Похожие темы
Форум Тема Автор Торрент Отв. Посл. сооб.
xUSSR сериалы [BD / Remux / BDRip / WEB-DL / HDTV 1080/720р] Клим [1-8 серии из 8] (Карен Оганесян) [2016 г., драма, криминал, триллер, WEB-DL 720р] promisе
0 | 0

2 | 987

24

13.02.2016 05:36


Яндекс.Метрика powered by Sphinx


В Н И М А Н И Е
Сайт не распространяет и не хранит электронные версии произведений, а лишь бесплатно и без коммерческой выгоды (не требуя взамен платы,
SMS и т.д.) предоставляет доступ к создаваемому пользователями каталогу ссылок на торрент-файлы, которые содержат только списки хеш-сумм.
Убедительная просьба с жалобами обращаться напрямую к пользователю, разместившему торрент файл.

Вверх