Loading...
Error

Мир Дикой Природы / Wild World (2 сезон: 1-7 серии из 7) [2011-2012 г., документальный, флора, фауна, путешествия, SatRip] VO

Статистика раздачи
Размер:  2,05 GB   |    Зарегистрирован:  9 месяцев   |    Скачан:  8 раз

Полного источника не было: 1 месяц 17 дней

Сидов:  0  |  0 KB/s  ]   Личеров:  0  |  0 KB/s  ]

* - сиды/пиры с внешних источников

   
 
Автор Сообщение

ARI71 Пол:Муж

10-Фев-2016 18:04

Мир Дикой Природы / Wild World (2 сезон)


Год выпуска: 2011-2012
Жанр: документальный, флора, фауна, путешествия
Страна: США, Nature
Режиссер: Шерон Коллинз
Сюжет фильма:
Мы отправимся в удивительное путешествие по самым красивым уголкам нашей планеты. При помощи специального оборудования мы сможем по-новому взглянуть на живописный мир, который окружает нас. Это не только экскурсия по болотам, островам и каньонам Америки, но и путешествие в интимный мир животных, населяющих этот ландшафт. Шерон Коллинс познакомит нас с различными видами животных, которые находятся под угрозой уничтожения...
Качество видео: SatRip

Продолжительность: 7 х ~00:27:00
Формат: AVI
Видео: XviD, 720x400, ~1339 kbps
Аудио: русский, одноголосый закадровый [профессиональный] "SDI Media" Виктория Бабанова, AC3 2.0, ~192.00 kbps
(тех. данные всех серий идентичны)
01. Летучие мыши
02. Алтамаха
03. Земля предков
04. Борьба за лягушек
05. Головастые морские черепахи, долгое путешествие
06. Великие каньоны
07. Такие манящие крабы

Код:

Общее
Полное имя : D:\Mir.dikoj.prirody.S2.2011-2012SATRip.[Один 777]\01.Letuchie.myshy.avi
Формат : AVI
Формат/Информация : Audio Video Interleave
Размер файла : 299 Мбайт
Продолжительность : 27 м.
Общий поток : 1542 Кбит/сек
Программа кодирования : VirtualDubMod 1.5.10.3 | www.virtualdub-fr.org || (build 2550/release)
Библиотека кодирования : VirtualDubMod build 2550/release

Видео
Идентификатор : 0
Формат : MPEG-4 Visual
Профиль формата : Advanced Simple@L5
Параметр BVOP формата : 1
Параметр QPel формата : Нет
Параметр GMC формата : Без точки перехода
Параметр матрицы формата : Default (H.263)
Идентификатор кодека : XVID
Идентификатор кодека/Подсказка : XviD
Продолжительность : 27 м.
Битрейт : 1340 Кбит/сек
Ширина : 720 пикселей
Высота : 400 пикселей
Соотношение сторон : 16:9
Частота кадров : 25,000 кадров/сек
Цветовое пространство : YUV
Субдискретизация насыщенности : 4:2:0
Битовая глубина : 8 бит
Тип развёртки : Прогрессивная
Метод сжатия : С потерями
Бит/(Пиксели*Кадры) : 0.186
Размер потока : 260 Мбайт (87%)
Библиотека кодирования : XviD 73

Аудио
Идентификатор : 1
Формат : AC-3
Формат/Информация : Audio Coding 3
Расширение режима : CM (complete main)
Параметр Endianness формата : Big
Идентификатор кодека : 2000
Продолжительность : 27 м.
Вид битрейта : Постоянный
Битрейт : 192 Кбит/сек
Каналы : 2 канала
Расположение каналов : Front: L R
Частота : 48,0 КГц
Метод сжатия : С потерями
Размер потока : 37,3 Мбайт (12%)
Выравнивание : Разделение по промежуткам
Продолжительность промежутка : 40 мс. (1,00 видеокадр)
Время предзагрузки промежутка : 500 мс.
picpicpicpic
Для увеличения картинки щелкните мышкой по превью

Этот торрент недоступен для скачивания без регистрации, однако доступен по публичной magnet-ссылке (источники с публичных трекеров). Перед использованием ссылки прочтите, пожалуйста Пользовательское соглашение, а также как можно дольше оставайтесь на раздаче! Для того, чтобы скачать сам торрент-файл (который видит больше источников), а также для того, чтобы поблагодарить релизера, вам необходимо зарегистрироваться. Если регистрироваться лень - вы можете также попробовать скачать релиз по нашим партнерским ссылкам ниже.

[underverse.su].t62884.torrent
Трекер: Зарегистрирован   [ 10.02.2016 18:04 ]  

Статус: проверено (by makkol at 10.02.2016 22:29)
Поблагодарили: 1 человек
Тип торрента: публичный - доступные источники с открытых трекеров: 
Размер: 2,05 GB (занимает 0,47 DVDR, для записи нужно 1 болванка DVDR/RW)
 
 
Похожие темы
Форум Тема Автор Торрент Отв. Посл. сооб.
National Geographic Мир дикой природы / World of the Wild (1-13 серии из 13) / (Макс Серио, Беттина Далтон) [2016 г., документальный, природа, флора, фауна, HDTVRip 720p] Dub ARI71
1 | 1

2 | 1301

3

03.10.2016 19:01

National Geographic Мир дикой природы / World of the Wild (1-13 серий из 13) / (Макс Серио, Беттина Далтон) [2016 г., документальный, природа, флора, фауна, HDTVRip] VO ARI71
12 | 5

2 | 1020

4

06.10.2016 09:19

Научно-популярные фильмы Мир Дикой Природы / Wild World (1 сезон: 1-7 серии из 7) [2010 г., документальный, флора, фауна, путешествия, SatRip] VO ARI71
1 | 0

1 | 627

11

10.02.2016 18:27

ARI71 Пол:Муж

10-Фев-2016 18:08

Друзья, приятного вам просмотра! Не забывайте также комментировать пожалуйста просмотренные релизы!

Яндекс.Метрика powered by Sphinx


В Н И М А Н И Е
Сайт не распространяет и не хранит электронные версии произведений, а лишь бесплатно и без коммерческой выгоды (не требуя взамен платы,
SMS и т.д.) предоставляет доступ к создаваемому пользователями каталогу ссылок на торрент-файлы, которые содержат только списки хеш-сумм.
Убедительная просьба с жалобами обращаться напрямую к пользователю, разместившему торрент файл.

Вверх