Loading...
Error

Симфония мира природы / Natural World Symphony [2005 г., документальный, природа, SatRip]

Статистика раздачи
Размер:  661 MB   |    Зарегистрирован:  9 месяцев   |    Скачан:  7 раз

Полного источника не было: 11 дней

Сидов:  0  |  0 KB/s  ]   Личеров:  0  |  0 KB/s  ]

* - сиды/пиры с внешних источников

   
 
Автор Сообщение

ARI71 Пол:Муж

10-Фев-2016 16:10

Симфония мира природы / Natural World Symphony


Год выпуска: 2005
Жанр: документальный, природа
Страна: Великобритания, Nature
Режиссер: ВВС
Сюжет фильма:
В этом фильме, прославляющем энергию и жизнестойкость Земли великолепный визуальный ряд, в котором собраны образы из жизни нашей планеты, - от электрических бурь и гигантских морских волн до Большого Барьерного рифа и падающих звезд, сопровождается музыкальными произведениями лауреата музыкальных премий "Меркурий" и «МОБО» Нитина Сони в исполнении Концертного оркестра Би-Би-Си.
Качество видео: SatRip

Продолжительность: 00:48:37
Формат: AVI
Видео: XviD, 704x384, ~1794 kbps
Аудио: перевод не требуется (нет диалогов и комментариев), MP3 mono, ~96.00 kbps

Код:

Общее
Полное имя : D:\Симфония мира природы.avi
Формат : AVI
Формат/Информация : Audio Video Interleave
Размер файла : 661 Мбайт
Продолжительность : 48 м.
Общий поток : 1900 Кбит/сек
Библиотека кодирования : VirtualDub build 32842/release

Видео
Идентификатор : 0
Формат : MPEG-4 Visual
Профиль формата : Advanced Simple@L5
Параметр BVOP формата : 2
Параметр QPel формата : Нет
Параметр GMC формата : Без точки перехода
Параметр матрицы формата : Default (MPEG)
Идентификатор кодека : XVID
Идентификатор кодека/Подсказка : XviD
Продолжительность : 48 м.
Битрейт : 1795 Кбит/сек
Ширина : 704 пикселя
Высота : 384 пикселя
Соотношение сторон : 1,85:1
Частота кадров : 25,000 кадров/сек
Цветовое пространство : YUV
Субдискретизация насыщенности : 4:2:0
Битовая глубина : 8 бит
Тип развёртки : Прогрессивная
Метод сжатия : С потерями
Бит/(Пиксели*Кадры) : 0.266
Размер потока : 624 Мбайт (94%)
Библиотека кодирования : XviD 61

Аудио
Идентификатор : 1
Формат : MPEG Audio
Версия формата : Version 1
Профиль формата : Layer 3
Идентификатор кодека : 55
Идентификатор кодека/Подсказка : MP3
Продолжительность : 48 м.
Вид битрейта : Постоянный
Битрейт : 96,0 Кбит/сек
Каналы : 1 канал
Частота : 48,0 КГц
Метод сжатия : С потерями
Размер потока : 33,4 Мбайт (5%)
Выравнивание : Разделение по промежуткам
Продолжительность промежутка : 40 мс. (1,00 видеокадр)
Время предзагрузки промежутка : 500 мс.
Релиз группы:

picpicpicpic
Для увеличения картинки щелкните мышкой по превью

Этот торрент недоступен для скачивания без регистрации, однако доступен по публичной magnet-ссылке (источники с публичных трекеров). Перед использованием ссылки прочтите, пожалуйста Пользовательское соглашение, а также как можно дольше оставайтесь на раздаче! Для того, чтобы скачать сам торрент-файл (который видит больше источников), а также для того, чтобы поблагодарить релизера, вам необходимо зарегистрироваться. Если регистрироваться лень - вы можете также попробовать скачать релиз по нашим партнерским ссылкам ниже.

[underverse.su].t62877.torrent
Трекер: Зарегистрирован   [ 10.02.2016 16:10 ]  

Статус: проверено (by makkol at 10.02.2016 22:25)
Поблагодарили: пока никто не поблагодарил...
Тип торрента: публичный - доступные источники с открытых трекеров: 
Размер: 661 MB (занимает 0,15 DVDR, для записи нужно 1 болванка DVDR/RW)
 
 


Последний раз редактировалось: ARI71 (10.02.2016 16:21), всего редактировалось 1 раз

ARI71 Пол:Муж

10-Фев-2016 16:15

Данный фильм не является видеорелаксом. Приятного просмотра!

Яндекс.Метрика powered by Sphinx


В Н И М А Н И Е
Сайт не распространяет и не хранит электронные версии произведений, а лишь бесплатно и без коммерческой выгоды (не требуя взамен платы,
SMS и т.д.) предоставляет доступ к создаваемому пользователями каталогу ссылок на торрент-файлы, которые содержат только списки хеш-сумм.
Убедительная просьба с жалобами обращаться напрямую к пользователю, разместившему торрент файл.

Вверх