Loading...
Error

Война / Krigen (Тобиас Линдхольм) [2015 г., драма, военный, DVDRip] VO

Статистика раздачи
Размер:  1,24 GB   |    Зарегистрирован:  9 месяцев   |    Скачан:  44 раза
Сидов:  1  |  0 KB/s  ]   Личеров:  0  |  0 KB/s  ]

* - сиды/пиры с внешних источников

   
 
Автор Сообщение

makkol Пол:Муж

09-Фев-2016 22:13

Война / Krigen


Год выпуска: 2015
Жанр: драма, военный
Производство: Дания [AZ Celtic Films, Nordisk Film Production]
Режиссер: Тобиас Линдхольм
В ролях: Йохан Филип Асбек, Тува Новотны, Сёрен Маллинг, Дар Салим, Шарлотте Мунк
Сюжет фильма:
Клаус Микаэль Педерсен служит в Афганистане, командуя ротой датских солдат. Во время патрулирования одного афганского селения отряд во главе с Педерсеном попадает в засаду, устроенную талибами. Рядовой Лассе тяжело ранен. Пытаясь спасти его жизнь, командир предпринимает отчаянный шаг, который в итоге приводит его на скамью подсудимых...

  • Мировая премьера: 5 сентября 2015


Качество видео: DVDRip

Продолжительность: 01:50:11
Формат: AVI
Видео: XviD, 704x384 (1.85:1), 25.000 fps, 1412 kbps
Аудио: русский, любительский одноголосый закадровый, MP3 2.0, 48 kHz, 192 kbps

Код:

General
Format                         : AVI
Format/Info                    : Audio Video Interleave
File size                      : 1.24 GiB
Duration                       : 1h 50mn
Overall bit rate               : 1 614 Kbps
Writing application            : VirtualDubMod 1.5.10.2 (build 2540/release)
Writing library                : VirtualDubMod build 2540/release

Video
ID                             : 0
Format                         : xvid
Codec ID                       : xvid
Duration                       : 1h 50mn
Bit rate                       : 1 412 Kbps
Width                          : 704 pixels
Height                         : 384 pixels
Display aspect ratio           : 1.85:1
Frame rate                     : 25.000 fps
Bits/(Pixel*Frame)             : 0.209
Stream size                    : 1.09 GiB (87%)

Audio
ID                             : 1
Format                         : MPEG Audio
Format version                 : Version 1
Format profile                 : Layer 3
Mode                           : Joint stereo
Codec ID                       : 55
Codec ID/Hint                  : MP3
Duration                       : 1h 50mn
Bit rate mode                  : Constant
Bit rate                       : 192 Kbps
Channel(s)                     : 2 channels
Sampling rate                  : 48.0 KHz
Compression mode               : Lossy
Stream size                    : 151 MiB (12%)
Alignment                      : Aligned on interleaves
Interleave, duration           : 40 ms (1.00 video frame)
Interleave, preload duration   : 504 ms
Перевод: adelstein_s
Озвучивание: Павел Морозов aka PashaUp
picpicpicpicpic
Для увеличения картинки щелкните мышкой по превью

Этот торрент недоступен для скачивания без регистрации, однако доступен по публичной magnet-ссылке (источники с публичных трекеров). Перед использованием ссылки прочтите, пожалуйста Пользовательское соглашение, а также как можно дольше оставайтесь на раздаче! Для того, чтобы скачать сам торрент-файл (который видит больше источников), а также для того, чтобы поблагодарить релизера, вам необходимо зарегистрироваться. Если регистрироваться лень - вы можете также попробовать скачать релиз по нашим партнерским ссылкам ниже.

[underverse.su].t62849.torrent
Трекер: Зарегистрирован   [ 09.02.2016 22:13 ]  

Статус: проверено (by makkol at 09.02.2016 23:41)
Поблагодарили: пока никто не поблагодарил...
Тип торрента: публичный - доступные источники с открытых трекеров: 
Размер: 1,24 GB (занимает 0,28 DVDR, для записи нужно 1 болванка DVDR/RW)
 
 
Похожие темы
Форум Тема Автор Торрент Отв. Посл. сооб.
Зарубежное кино [DVDRip, Low-Res HDRip, и т.д.] Война / Krigen (Тобиас Линдхольм / Tobias Lindholm) [2015 г., драма, военный, DVDRip] VO (PashaUp) + Original (Dan) 90ytr90
15 | 1

0 | 383

3

15.02.2016 19:04


Яндекс.Метрика powered by Sphinx


В Н И М А Н И Е
Сайт не распространяет и не хранит электронные версии произведений, а лишь бесплатно и без коммерческой выгоды (не требуя взамен платы,
SMS и т.д.) предоставляет доступ к создаваемому пользователями каталогу ссылок на торрент-файлы, которые содержат только списки хеш-сумм.
Убедительная просьба с жалобами обращаться напрямую к пользователю, разместившему торрент файл.

Вверх