Loading...
Error

Дядя Джон / Uncle John (Стивен Пит) [2015 г., триллер, драма, мелодрама, криминал, детектив, WEB-DLRip] DVO

Статистика раздачи
Размер:  1,45 GB   |    Зарегистрирован:  9 месяцев   |    Скачан:  13 раз

Полного источника не было: 40 минут

Сидов:  0  |  0 KB/s  ]   Личеров:  0  |  0 KB/s  ]

* - сиды/пиры с внешних источников

   
 
Автор Сообщение

makkol Пол:Муж

08-Фев-2016 22:51

Дядя Джон / Uncle John


Год выпуска: 2015
Жанр: триллер, драма, мелодрама, криминал, детектив
Страна: США
Режиссер: Стивен Пит
В ролях: Джон Эштон, Алекс Моффат, Дженна Линг, Ронни Джин Блевинс, Синтия Бэйкер, Энди Камерон, Адриа Доун, Тим Декер
Сюжет фильма:
Горожанин возвращается в свой тихий родной городок, его могут обвинить в убийстве. Он должен сделать все, чтобы этого не произошло…

  • Мировая премьера: 16 марта 2015


Качество видео: WEB-DLRip

Продолжительность: 01:54:11
Формат: AVI
Видео: XviD, 720x304 (2.35:1), 23.976 fps, 1619 kbps
Аудио: русский, любительский двухголосый закадровый (Parovoz Production), AC3 2.0, 48 kHz, 192 kbps

Код:

Format : AVI
Format/Info : Audio Video Interleave
File size : 1.45 GiB
Duration : 1h 54mn
Overall bit rate : 1 820 Kbps
Writing application : VirtualDubMod 1.5.10.3 | www.virtualdub-fr.org || (build 2550/release)
Writing library : VirtualDubMod build 2550/release

Video
ID : 0
Format : MPEG-4 Visual
Format profile : Advanced Simple@L5
Format settings, BVOP : 1
Format settings, QPel : No
Format settings, GMC : No warppoints
Format settings, Matrix : Custom
Codec ID : XVID
Codec ID/Hint : XviD
Duration : 1h 54mn
Bit rate : 1 619 Kbps
Width : 720 pixels
Height : 304 pixels
Display aspect ratio : 2.35:1
Frame rate : 23.976 (23976/1000) fps
Color space : YUV
Chroma subsampling : 4:2:0
Bit depth : 8 bits
Scan type : Progressive
Compression mode : Lossy
Bits/(Pixel*Frame) : 0.308
Stream size : 1.29 GiB (89%)
Writing library : XviD 73

Audio
ID : 1
Format : AC-3
Format/Info : Audio Coding 3
Mode extension : CM (complete main)
Format settings, Endianness : Big
Codec ID : 2000
Duration : 1h 54mn
Bit rate mode : Constant
Bit rate : 192 Kbps
Channel(s) : 2 channels
Channel positions : Front: L R
Sampling rate : 48.0 KHz
Frame rate : 31.250 fps (1536 spf)
Compression mode : Lossy
Stream size : 157 MiB (11%)
Alignment : Split accross interleaves
Interleave, duration : 42 ms (1.00 video frame)
Interleave, preload duratio : 500 ms
Релиз без рекламы!


picpicpicpicpic
Для увеличения картинки щелкните мышкой по превью

Этот торрент недоступен для скачивания без регистрации, однако доступен по публичной magnet-ссылке (источники с публичных трекеров). Перед использованием ссылки прочтите, пожалуйста Пользовательское соглашение, а также как можно дольше оставайтесь на раздаче! Для того, чтобы скачать сам торрент-файл (который видит больше источников), а также для того, чтобы поблагодарить релизера, вам необходимо зарегистрироваться. Если регистрироваться лень - вы можете также попробовать скачать релиз по нашим партнерским ссылкам ниже.

[underverse.su].t62829.torrent
Трекер: Зарегистрирован   [ 08.02.2016 22:51 ]  

Статус: проверено (by makkol at 09.02.2016 23:35)
Поблагодарили: пока никто не поблагодарил...
Тип торрента: публичный - доступные источники с открытых трекеров: 
Размер: 1,45 GB (занимает 1/3 DVDR, для записи нужно 1 болванка DVDR/RW)
 
 
Похожие темы
Форум Тема Автор Торрент Отв. Посл. сооб.
Зарубежное кино [HDDVDRip / BDRip / WEB-DL / HDTV 1080/720р] Дядя Джон / Uncle John (Стивен Пит) [2015 г., триллер, драма, мелодрама, криминал, детектив, WEB-DL 720p] DVO + Original makkol
7 | 0

0 | 392

12

08.02.2016 22:59


Яндекс.Метрика powered by Sphinx


В Н И М А Н И Е
Сайт не распространяет и не хранит электронные версии произведений, а лишь бесплатно и без коммерческой выгоды (не требуя взамен платы,
SMS и т.д.) предоставляет доступ к создаваемому пользователями каталогу ссылок на торрент-файлы, которые содержат только списки хеш-сумм.
Убедительная просьба с жалобами обращаться напрямую к пользователю, разместившему торрент файл.

Вверх