Loading...
Error

Хороший динозавр / The Good Dinosaur (Питер Сон) [2015 г., мультфильм, фэнтези, комедия, приключения, семейный, HDRip] Dub (Line)

Статистика раздачи
Размер:  1,45 GB   |    Зарегистрирован:  9 месяцев   |    Скачан:  69 раз
Сидов:  2  |  0 KB/s  ]   Личеров:  0  |  0 KB/s  ]

* - сиды/пиры с внешних источников

   
 
Автор Сообщение

makkol Пол:Муж

08-Фев-2016 22:18

Хороший динозавр / The Good Dinosaur


Год выпуска: 2015
Жанр: мультфильм, фэнтези, комедия, приключения, семейный
Производство: США [Walt Disney Pictures, Pixar Animation Studios]
Режиссер: Питер Сон
Роли озвучивали: Джеффри Райт, Фрэнсис МакДорманд, Малиа Нипай-Падилья, Райан Типл, Джек МакГроу, Маркус Скрибнер, Рэймонд Очоа, Джек Брайт, Питер Сон, Стив Зан
Сюжет фильма:
По сюжету динозавры не вымерли, а эволюционировали в разумных существ и живут и здравствуют на Земле. А вот люди остались на довольно примитивной стадии развития. Фильм расскажет историю дружбы динозавра и маленького мальчика.

Качество видео: HDRip

Продолжительность: 01:33:13
Формат: AVI
Видео: XviD, 720x304 (2.35:1), 23.976 fps, 2019 kbps
Аудио: русский, дублированный (чистый звук), AC3 2.0, 48 kHz, 192 kbps

Код:

General
Format                                   : AVI
Format/Info                              : Audio Video Interleave
File size                                : 1.37 GiB
Duration                                 : 1h 33mn
Overall bit rate                         : 2 087 Kbps
Writing application                      : VirtualDubMod 1.5.10.3 | www.virtualdub-fr.org || (build 2550/release)
Writing library                          : VirtualDubMod build 2550/release

Video
ID                                       : 0
Format                                   : MPEG-4 Visual
Format profile                           : Advanced Simple@L5
Format settings, BVOP                    : 2
Format settings, QPel                    : No
Format settings, GMC                     : No warppoints
Format settings, Matrix                  : Default (MPEG)
Codec ID                                 : XVID
Codec ID/Hint                            : XviD
Duration                                 : 1h 33mn
Bit rate                                 : 1 949 Kbps
Width                                    : 720 pixels
Height                                   : 304 pixels
Display aspect ratio                     : 2.35:1
Frame rate                               : 23.976 (24000/1001) fps
Color space                              : YUV
Chroma subsampling                       : 4:2:0
Bit depth                                : 8 bits
Scan type                                : Progressive
Compression mode                         : Lossy
Bits/(Pixel*Frame)                       : 0.371
Stream size                              : 1.28 GiB (93%)
Writing library                          : XviD 1.2.1 (UTC 2008-12-04)

Audio
ID                                       : 1
Format                                   : AC-3
Format/Info                              : Audio Coding 3
Mode extension                           : CM (complete main)
Format settings, Endianness              : Big
Codec ID                                 : 2000
Duration                                 : 1h 33mn
Bit rate mode                            : Constant
Bit rate                                 : 128 Kbps
Channel(s)                               : 2 channels
Channel positions                        : Front: L R
Sampling rate                            : 48.0 KHz
Frame rate                               : 31.250 fps (1536 spf)
Compression mode                         : Lossy
Stream size                              : 86.0 MiB (6%)
Alignment                                : Split accross interleaves
Interleave, duration                     : 42 ms (1.00 video frame)
Interleave, preload duration             : 500 ms
Релиз без рекламы!


picpicpicpicpic
Для увеличения картинки щелкните мышкой по превью

Этот торрент недоступен для скачивания без регистрации, однако доступен по публичной magnet-ссылке (источники с публичных трекеров). Перед использованием ссылки прочтите, пожалуйста Пользовательское соглашение, а также как можно дольше оставайтесь на раздаче! Для того, чтобы скачать сам торрент-файл (который видит больше источников), а также для того, чтобы поблагодарить релизера, вам необходимо зарегистрироваться. Если регистрироваться лень - вы можете также попробовать скачать релиз по нашим партнерским ссылкам ниже.

[underverse.su].t62826.torrent
Трекер: Зарегистрирован   [ 09.02.2016 23:26 ]  

Статус: T временная (by makkol at 09.02.2016 23:27)
Поблагодарили: 1 человек
Тип торрента: публичный - доступные источники с открытых трекеров: 
Размер: 1,45 GB (занимает 1/3 DVDR, для записи нужно 1 болванка DVDR/RW)
 
 
Похожие темы
Форум Тема Автор Торрент Отв. Посл. сооб.
Зарубежные мультфильмы Хороший динозавр / The Good Dinosaur (Питер Сон / Peter Sohn) [2015 г., мультфильм, фэнтези, комедия, приключения, семейный, BDRip-AVC] Dub + Original (Eng) + Sub (Rus, Eng) 90ytr90
0 | 0

0 | 239

0

14.11.2016 17:18

Зарубежные мультфильмы Хороший динозавр / The Good Dinosaur (Питер Сон / Peter Sohn) [2015 г., мультфильм, фэнтези, комедия, приключения, семейный, BDRip-AVC] Dub + Sub (Rus) 90ytr90
72 | 4

0 | 248

2

14.11.2016 17:13

Зарубежные мультфильмы Хороший динозавр / The Good Dinosaur (Питер Сон / Peter Sohn) [2015 г., мультфильм, фэнтези, комедия, приключения, семейный, HDRip] Dub 90ytr90
52 | 0

0 | 243

0

14.11.2016 17:08

T Зарубежные мультфильмы Хороший динозавр / The Good Dinosaur (Питер Сон) [2015 г., мультфильм, фэнтези, комедия, приключения, семейный, WEBRip] Dub (звук с CAMRip) makkol
0 | 3

0 | 983

52

21.12.2015 22:26

T Зарубежные мультфильмы Хороший динозавр / The Good Dinosaur (Питер Сон) [2015 г., мультфильм, фэнтези, комедия, приключения, семейный, HDRip] Dub makkol
0 | 0

0 | 632

12

14.03.2016 23:28

Зарубежные мультфильмы Хороший динозавр / The Good Dinosaur (Питер Сон / Peter Sohn) [2015 г., мультфильм, фэнтези, комедия, приключения, семейный, BDRip] Dub 90ytr90
55 | 1

0 | 480

15

19.03.2016 21:23

T Новинки мультфильмов [CAMRip, TS, DVDScr, WP, TC] Хороший динозавр / The Good Dinosaur (Питер Сон) [2015 г., мультфильм, фэнтези, комедия, приключения, семейный, CAMRip] Dub + Original makkol
14 | 3

1 | 816

66

08.12.2015 17:58

Мультфильмы [HDDVDRip / BDRip / WEB-DL / HDTV 1080/720р] Хороший динозавр / The Good Dinosaur (Питер Сон / Peter Sohn) [2015 г., мультфильм, фэнтези, комедия, приключения, семейный, BDRip 1080p] Dub + Original (Eng) + Sub (Rus, Eng) 90ytr90
98 | 7

0 | 254

1

14.11.2016 17:30

Мультфильмы [HDDVDRip / BDRip / WEB-DL / HDTV 1080/720р] Хороший динозавр / The Good Dinosaur (Питер Сон / Peter Sohn) [2015 г., мультфильм, фэнтези, комедия, приключения, семейный, BDRip 720p] Dub + Original (Eng) + Sub (Rus, Eng) 90ytr90
74 | 6

0 | 251

2

14.11.2016 17:24

T Мультфильмы [HDDVDRip / BDRip / WEB-DL / HDTV 1080/720р] Хороший динозавр / The Good Dinosaur (Питер Сон) [2015 г., мультфильм, фэнтези, комедия, приключения, семейный, BDRip 1080p] Dub (Line) + Original makkol
103 | 4

1 | 662

21

09.02.2016 23:23

makkol Пол:Муж

09-Фев-2016 23:28

10.02 раздача обновлена, теперь - без рекламы

Яндекс.Метрика powered by Sphinx


В Н И М А Н И Е
Сайт не распространяет и не хранит электронные версии произведений, а лишь бесплатно и без коммерческой выгоды (не требуя взамен платы,
SMS и т.д.) предоставляет доступ к создаваемому пользователями каталогу ссылок на торрент-файлы, которые содержат только списки хеш-сумм.
Убедительная просьба с жалобами обращаться напрямую к пользователю, разместившему торрент файл.

Вверх