Loading...
Error

Хватай и беги / Freaks of Nature (Робби Пикеринг) [2015 г., ужасы, комедия, HDRip] MVO

Статистика раздачи
Размер:  1,37 GB   |    Зарегистрирован:  9 месяцев   |    Скачан:  17 раз
Сидов:  2  |  0 KB/s  ]   Личеров:  0  |  0 KB/s  ]

* - сиды/пиры с внешних источников

   
 
Автор Сообщение

makkol Пол:Муж

08-Фев-2016 21:21

Хватай и беги / Freaks of Nature


Год выпуска: 2015
Жанр: ужасы, комедия
Производство: США [Columbia Pictures, Sony Pictures Entertainment (SPE)]
Режиссер: Робби Пикеринг
В ролях: Николас Браун, Маккензи Дэвис, Джош Фэйдем, Дэнис Лири, Эд Вествик, Ванесса Энн Хадженс, Кигэн-Майкл Ки, Боб Оденкёрк, Джоан Кьюсак, Крис Зилка
Сюжет фильма:
Сюжет расскажет о группе учеников старших классов, атакованных зомби. Пока ничего необычного. Однако в то время как школьники спасаются бегством, зомби подвергаются нападению вампиров. Все становится еще веселее, когда на Землю высаживаются инопланетяне. Теперь школьникам придется объединиться с зомби и вампирами, чтобы остановить вторжение на нашу планету.

  • Мировая премьера: 3 декабря 2015


Качество видео: HDRip

Продолжительность: 01:32:35
Формат: AVI
Видео: XviD, 720x304 (2.35:1), 23.976 fps, 1720 kbps
Аудио: русский, профессиональный многоголосый закадровый (iTunes), AC3 5.1, 48 kHz, 384 kbps

Код:

Общее
Формат                                   : AVI
Формат/Информация                        : Audio Video Interleave
Размер файла                             : 1,37 Гбайт
Продолжительность                        : 1 ч. 32 м.
Общий поток                              : 2113 Кбит/сек
Программа кодирования                    : VirtualDubMod 1.5.10.2 (build 2540/release)
Библиотека кодирования                   : VirtualDubMod build 2540/release

Видео
Идентификатор                            : 0
Формат                                   : MPEG-4 Visual
Профиль формата                          : Advanced Simple@L5
Параметр BVOP формата                    : 2
Параметр QPel формата                    : Нет
Параметр GMC формата                     : Без точки перехода
Параметр матрицы формата                 : Default (MPEG)
Идентификатор кодека                     : XVID
Идентификатор кодека/Подсказка           : XviD
Продолжительность                        : 1 ч. 32 м.
Битрейт                                  : 1720 Кбит/сек
Ширина                                   : 720 пикселей
Высота                                   : 304 пикселя
Соотношение сторон                       : 2,35:1
Частота кадров                           : 23,976 (24000/1001) кадра/сек
Цветовое пространство                    : YUV
Субдискретизация насыщенности            : 4:2:0
Битовая глубина                          : 8 бит
Тип развёртки                            : Прогрессивная
Метод сжатия                             : С потерями
Бит/(Пиксели*Кадры)                      : 0.328
Размер потока                            : 1,11 Гбайт (81%)
Библиотека кодирования                   : XviD 1.2.1 (UTC 2008-12-04)

Аудио
Идентификатор                            : 1
Формат                                   : AC-3
Формат/Информация                        : Audio Coding 3
Расширение режима                        : CM (complete main)
Параметр Endianness формата              : Big
Идентификатор кодека                     : 2000
Продолжительность                        : 1 ч. 32 м.
Вид битрейта                             : Постоянный
Битрейт                                  : 384 Кбит/сек
Каналы                                   : 6 каналов
Расположение каналов                     : Front: L C R, Side: L R, LFE
Частота                                  : 48,0 КГц
Частота кадров                           : 31,250 кадров/сек (1536 spf)
Метод сжатия                             : С потерями
Задержка видео                           : 1 с. 0 мс.
Размер потока                            : 254 Мбайт (18%)
Выравнивание                             : Разделение по промежуткам
Продолжительность промежутка             : 42  мс. (1,00 видеокадр)
Время предзагрузки промежутка            : 500  мс.
picpicpicpicpic
Для увеличения картинки щелкните мышкой по превью

Этот торрент недоступен для скачивания без регистрации, однако доступен по публичной magnet-ссылке (источники с публичных трекеров). Перед использованием ссылки прочтите, пожалуйста Пользовательское соглашение, а также как можно дольше оставайтесь на раздаче! Для того, чтобы скачать сам торрент-файл (который видит больше источников), а также для того, чтобы поблагодарить релизера, вам необходимо зарегистрироваться. Если регистрироваться лень - вы можете также попробовать скачать релиз по нашим партнерским ссылкам ниже.

[underverse.su].t62821.torrent
Трекер: Зарегистрирован   [ 08.02.2016 21:21 ]  

Статус: T временная (by makkol at 09.02.2016 23:14)
Поблагодарили: пока никто не поблагодарил...
Тип торрента: публичный - доступные источники с открытых трекеров: 
Размер: 1,37 GB (занимает 0,31 DVDR, для записи нужно 1 болванка DVDR/RW)
 
 
Похожие темы
Форум Тема Автор Торрент Отв. Посл. сооб.
Зарубежное кино [DVDRip, Low-Res HDRip, и т.д.] Хватай и беги / Побег / Hit and Run (Дэвид Палмер, Дэкс Шепард) [2012 г., боевик, мелодрама, комедия, WEBDLRip] VO 90ytr90
23 | 1

0 | 3534

33

20.12.2012 07:50

T Зарубежное кино [DVDRip, Low-Res HDRip, и т.д.] Хватай и беги / Freaks of Nature (Робби Пикеринг / Robbie Pickering) [2015 г., ужасы, комедия, BDRip-AVC] MVO (iTunes) + Original (Eng) + Sub (Rus, Ukr, Eng) 90ytr90
21 | 1

0 | 253

3

12.11.2016 15:38

Зарубежное кино [DVDRip, Low-Res HDRip, и т.д.] Хватай и беги / Побег / Hit and Run (Дэвид Палмер, Дэкс Шепард) [2012 г., боевик, мелодрама, комедия, HDRip] MVO TERRAN
0 | 0

0 | 2224

157

13.06.2013 14:02

Зарубежное кино [DVDRip, Low-Res HDRip, и т.д.] Хватай и беги / Побег / Hit and Run (Дэвид Палмер, Дэкс Шепар) [2012 г., боевик, драма, комедия, HDRip] MVO TERRAN
17 | 0

0 | 1365

13

13.06.2013 14:05

T Зарубежное кино [DVDRip, Low-Res HDRip, и т.д.] Хватай и беги / Freaks of Nature (Робби Пикеринг / Robbie Pickering) [2015 г., ужасы, комедия, HDRip] DVO (Parovoz Production) 90ytr90
14 | 0

0 | 424

11

02.02.2016 17:43

Зарубежное кино [DVDRip, Low-Res HDRip, и т.д.] Хватай и беги / Freaks of Nature (Робби Пикеринг / Robbie Pickering) [2015 г., ужасы, комедия, BDRip] DVO (Parovoz Production) + Original (Eng) 90ytr90
16 | 0

0 | 633

14

04.02.2016 15:53

T Зарубежное кино [HDDVDRip / BDRip / WEB-DL / HDTV 1080/720р] Хватай и беги / Freaks of Nature (Робби Пикеринг / Robbie Pickering) [2015 г., ужасы, комедия, BDRip 720p] DVO (Parovoz Production) + Original (Eng) 90ytr90
6 | 0

0 | 378

3

02.02.2016 17:48

T Зарубежное кино [HDDVDRip / BDRip / WEB-DL / HDTV 1080/720р] Хватай и беги / Freaks of Nature (Робби Пикеринг / Robbie Pickering) [2015 г., ужасы, комедия, BDRip 1080p] DVO (Parovoz Production) + Original (Eng) 90ytr90
7 | 0

0 | 350

4

02.02.2016 17:53

T Зарубежное кино [HDDVDRip / BDRip / WEB-DL / HDTV 1080/720р] Хватай и беги / Freaks of Nature (Робби Пикеринг) [2015 г., ужасы, комедия, BDRip 720p] MVO + Original makkol
17 | 0

0 | 371

6

08.02.2016 21:29

T Зарубежное кино [HDDVDRip / BDRip / WEB-DL / HDTV 1080/720р] Хватай и беги / Freaks of Nature (Робби Пикеринг) [2015 г., ужасы, комедия, BDRip 1080p] MVO + Original makkol
6 | 0

0 | 430

7

08.02.2016 21:39


Яндекс.Метрика powered by Sphinx


В Н И М А Н И Е
Сайт не распространяет и не хранит электронные версии произведений, а лишь бесплатно и без коммерческой выгоды (не требуя взамен платы,
SMS и т.д.) предоставляет доступ к создаваемому пользователями каталогу ссылок на торрент-файлы, которые содержат только списки хеш-сумм.
Убедительная просьба с жалобами обращаться напрямую к пользователю, разместившему торрент файл.

Вверх