Loading...
Error

Хуже, чем ложь / Misconduct (Шинтаро Шимосава) [2016 г., триллер, драма, WEB-DLRip] DVO

Статистика раздачи
Размер:  1,47 GB   |    Зарегистрирован:  9 месяцев   |    Скачан:  70 раз
Сидов:  2  |  0 KB/s  ]   Личеров:  0  |  0 KB/s  ]

* - сиды/пиры с внешних источников

   
 
Автор Сообщение

makkol Пол:Муж

07-Фев-2016 14:10

Хуже, чем ложь / Misconduct


Год выпуска: 2016
Жанр: триллер, драма
Производство: США [Mike and Marty Productions]
Режиссер: Шинтаро Шимосава
В ролях: Джош Дюамель, Аль Пачино, Энтони Хопкинс, Элис Ив, Малин Акерман, Джулия Стайлз, Глен Пауэлл, Ли Бён Хон, Крис Маркетт, Шона Гастян
Сюжет фильма:
Когда амбициозный молодой юрист берется за большое дело против влиятельного и безжалостного исполнительного директора крупной фармацевтической компании, он оказывается втянут в мир шантажа и коррупции.

  • Мировая премьера: 5 февраля 2016


Качество видео: WEB-DLRip

Продолжительность: 01:45:53
Формат: AVI
Видео: XviD, 720x304 (2.35:1), 23.976 fps, 1846 kbps
Аудио: русский, любительский двухголосый закадровый (den904 & DeadSno), AC3 2.0, 48 kHz, 128 kbps

Код:

General
Format : AVI
Format/Info : Audio Video Interleave
File size : 1.47 GiB
Duration : 1h 45mn
Overall bit rate : 1 984 Kbps
Writing application : VirtualDubMod 1.5.10.3 | www.virtualdub-fr.org || (build 2550/release)
Writing library : VirtualDubMod build 2550/release

Video
ID : 0
Format : MPEG-4 Visual
Format profile : Advanced Simple@L5
Format settings, BVOP : 1
Format settings, QPel : No
Format settings, GMC : No warppoints
Format settings, Matrix : Custom
Codec ID : XVID
Codec ID/Hint : XviD
Duration : 1h 45mn
Bit rate : 1 846 Kbps
Width : 720 pixels
Height : 304 pixels
Display aspect ratio : 2.35:1
Frame rate : 23.976 (23976/1000) fps
Color space : YUV
Chroma subsampling : 4:2:0
Bit depth : 8 bits
Scan type : Progressive
Compression mode : Lossy
Bits/(Pixel*Frame) : 0.352
Stream size : 1.37 GiB (93%)
Writing library : XviD 73

Audio
ID : 1
Format : AC-3
Format/Info : Audio Coding 3
Mode extension : CM (complete main)
Format settings, Endianness : Big
Codec ID : 2000
Duration : 1h 45mn
Bit rate mode : Constant
Bit rate : 128 Kbps
Channel(s) : 2 channels
Channel positions : Front: L R
Sampling rate : 48.0 KHz
Frame rate : 31.250 fps (1536 spf)
Compression mode : Lossy
Stream size : 96.9 MiB (6%)
Alignment : Split accross interleaves
Interleave, duration : 42 ms (1.00 video frame)
Interleave, preload duratio : 500 ms
Без рекламы!


picpicpicpicpic
Для увеличения картинки щелкните мышкой по превью

Этот торрент недоступен для скачивания без регистрации, однако доступен по публичной magnet-ссылке (источники с публичных трекеров). Перед использованием ссылки прочтите, пожалуйста Пользовательское соглашение, а также как можно дольше оставайтесь на раздаче! Для того, чтобы скачать сам торрент-файл (который видит больше источников), а также для того, чтобы поблагодарить релизера, вам необходимо зарегистрироваться. Если регистрироваться лень - вы можете также попробовать скачать релиз по нашим партнерским ссылкам ниже.

[underverse.su].t62779.torrent
Трекер: Зарегистрирован   [ 07.02.2016 14:10 ]  

Статус: проверено (by makkol at 09.02.2016 23:05)
Поблагодарили: 4 человека
Тип торрента: публичный - доступные источники с открытых трекеров: 
Размер: 1,47 GB (занимает 0,34 DVDR, для записи нужно 1 болванка DVDR/RW)
 
 
Похожие темы
Форум Тема Автор Торрент Отв. Посл. сооб.
Зарубежное кино [HDDVDRip / BDRip / WEB-DL / HDTV 1080/720р] Хуже, чем ложь / Misconduct (Шинтаро Шимосава) [2016 г., триллер, драма, WEB-DL 720p] DVO + Original makkol
53 | 1

0 | 1182

20

07.02.2016 14:18

Зарубежное кино [HDDVDRip / BDRip / WEB-DL / HDTV 1080/720р] Хуже, чем ложь / Misconduct (Шинтаро Шимосава) [2016 г., триллер, драма, WEB-DL 1080p] DVO + Original makkol
18 | 0

0 | 798

41

07.02.2016 14:34


Яндекс.Метрика powered by Sphinx


В Н И М А Н И Е
Сайт не распространяет и не хранит электронные версии произведений, а лишь бесплатно и без коммерческой выгоды (не требуя взамен платы,
SMS и т.д.) предоставляет доступ к создаваемому пользователями каталогу ссылок на торрент-файлы, которые содержат только списки хеш-сумм.
Убедительная просьба с жалобами обращаться напрямую к пользователю, разместившему торрент файл.

Вверх