Loading...
Error

Отряд / Антиганг / Antigang (Бенжамен Роше) [2015 г., боевик, драма, BDRip] Dub (Line)

Статистика раздачи
Размер:  1,42 GB   |    Зарегистрирован:  10 месяцев   |    Скачан:  53 раза

Полного источника не было: 5 часов

Сидов:  0  |  0 KB/s  ]   Личеров:  0  |  0 KB/s  ]

* - сиды/пиры с внешних источников

   
 
Автор Сообщение

makkol Пол:Муж

06-Фев-2016 23:12

Отряд / Антиганг / Antigang


Год выпуска: 2015
Жанр: боевик, драма
Производство: Франция [Capture The Flag Films]
Режиссер: Бенжамен Роше
В ролях: Жан Рено, Элбан Ленуар, Катерина Мурино, Умар Диау, Стефи Сельма, Себастьен ЛаЛэйнн, Тьерри Нёвик, Жан-Туссен Бернард, Якоб Седергрен, Эстер Козёль
Сюжет фильма:
Серж Бюрен — легендарный полицейский, возглавляющий группу молодых приспешников с нетипичным подходом. И неважно, используют ли они бейсбольные биты или напрочь забывают об уставе во время показательных арестов, результат налицо. В то же время группировка смертоносных грабителей с легкостью обчищает столичные банки и ювелирные магазины. Бюрен и его подразделение попадают в непростую ситуацию: окажутся ли привычные им методы быстрого реагирования достаточными, для того чтобы остановить преступников?

  • Мировая премьера: 19 августа 2015
  • Российская премьера: 4 февраля 2016


Качество видео: BDRip

Продолжительность: 01:32:43
Формат: AVI
Видео: XviD, 720x304 (2.35:1), 24.000 fps, 1799 kbps
Аудио: русский, дублированный (чистый звук), AC3 2.0, 48 kHz, 384 kbps

Код:

General
Format                                   : AVI
Format/Info                              : Audio Video Interleave
File size                                : 1.42 GiB
Duration                                 : 1h 32mn
Overall bit rate                         : 2 192 Kbps
Movie name                               : Antigang.2015.D.BDRip.1.45GB.avi
Genre                                    : Action/Drama / Action/Drama
Writing application                      : VirtualDubMod 1.5.10.3 (build 2550/release)
Original source form/Name                : Movie / Movie

Video
ID                                       : 0
Format                                   : MPEG-4 Visual
Format profile                           : Advanced Simple@L5
Format settings, BVOP                    : 2
Format settings, QPel                    : No
Format settings, GMC                     : No warppoints
Format settings, Matrix                  : Custom
Codec ID                                 : XVID
Codec ID/Hint                            : XviD
Duration                                 : 1h 32mn
Bit rate                                 : 1 799 Kbps
Width                                    : 720 pixels
Height                                   : 304 pixels
Display aspect ratio                     : 2.35:1
Frame rate                               : 24.000 fps
Color space                              : YUV
Chroma subsampling                       : 4:2:0
Bit depth                                : 8 bits
Scan type                                : Progressive
Compression mode                         : Lossy
Bits/(Pixel*Frame)                       : 0.342
Stream size                              : 1.16 GiB (82%)
Writing library                          : XviD 1.2.1 (UTC 2008-12-04)

Audio
ID                                       : 1
Format                                   : AC-3
Format/Info                              : Audio Coding 3
Mode extension                           : CM (complete main)
Format settings, Endianness              : Big
Codec ID                                 : 2000
Duration                                 : 1h 32mn
Bit rate mode                            : Constant
Bit rate                                 : 384 Kbps
Channel(s)                               : 2 channels
Channel positions                        : Front: L R
Sampling rate                            : 48.0 KHz
Bit depth                                : 16 bits
Compression mode                         : Lossy
Stream size                              : 255 MiB (18%)
Alignment                                : Aligned on interleaves
Interleave, duration                     : 42 ms (1.00 video frame)
Interleave, preload duration             : 512 ms
Релиз:
Без рекламы!


picpicpicpicpic
Для увеличения картинки щелкните мышкой по превью

Этот торрент недоступен для скачивания без регистрации, однако доступен по публичной magnet-ссылке (источники с публичных трекеров). Перед использованием ссылки прочтите, пожалуйста Пользовательское соглашение, а также как можно дольше оставайтесь на раздаче! Для того, чтобы скачать сам торрент-файл (который видит больше источников), а также для того, чтобы поблагодарить релизера, вам необходимо зарегистрироваться. Если регистрироваться лень - вы можете также попробовать скачать релиз по нашим партнерским ссылкам ниже.

[underverse.su].t62771.torrent
Трекер: Зарегистрирован   [ 06.02.2016 23:12 ]  

Статус: T временная (by makkol at 09.02.2016 23:04)
Поблагодарили: 1 человек
Тип торрента: публичный - доступные источники с открытых трекеров: 
Размер: 1,42 GB (занимает 0,32 DVDR, для записи нужно 1 болванка DVDR/RW)
 
 
Похожие темы
Форум Тема Автор Торрент Отв. Посл. сооб.
T Зарубежное кино [DVDRip, Low-Res HDRip, и т.д.] Отряд / Антиганг / Antigang (Бенжамен Роше / Benjamin Rocher) [2015 г., боевик, драма, BDRip-AVC] Dub (iTunes) + Original (Fre) + Sub (Fre) 90ytr90
9 | 1

0 | 317

3

15.11.2016 18:57

T Зарубежное кино [DVDRip, Low-Res HDRip, и т.д.] Отряд / Антиганг / Antigang (Бенжамен Роше / Benjamin Rocher) [2015 г., боевик, драма, BDRip-AVC] Dub (iTunes) + Sub (Fre) 90ytr90
19 | 0

0 | 301

0

15.11.2016 18:57

Зарубежное кино [DVDRip, Low-Res HDRip, и т.д.] Отряд / Антиганг / Antigang (Бенжамен Роше) [2015 г., боевик, драма, HDRip] MVO makkol
10 | 0

0 | 1012

166

30.12.2015 22:09

Зарубежное кино [DVDRip, Low-Res HDRip, и т.д.] Отряд / Антиганг / Antigang (Бенжамен Роше / Benjamin Rocher) [2015 г., боевик, драма, HDRip-AVC] MVO (Paradox & Omskbird records) + Original (Fre) 90ytr90
14 | 0

0 | 648

18

11.01.2016 19:53

T Зарубежное кино [DVDRip, Low-Res HDRip, и т.д.] Отряд / Антиганг / Antigang (Бенжамен Роше / Benjamin Rocher) [2015 г., боевик, драма, BDRip] Dub (iTunes) 90ytr90
24 | 0

0 | 611

14

29.05.2016 07:41

Зарубежное кино [HDDVDRip / BDRip / WEB-DL / HDTV 1080/720р] Отряд / Антиганг / Antigang (Бенжамен Роше) [2015 г., боевик, драма, BDRip 1080p] MVO + Original makkol
3 | 0

0 | 1204

80

30.12.2015 22:18

Зарубежное кино [HDDVDRip / BDRip / WEB-DL / HDTV 1080/720р] Отряд / Антиганг / Antigang (Бенжамен Роше / Benjamin Rocher) [2015 г., боевик, драма, BDRip 720p] MVO (Paradox & Omskbird records) + Original (Fre) 90ytr90
47 | 1

0 | 604

18

11.01.2016 20:02

T Зарубежное кино [HDDVDRip / BDRip / WEB-DL / HDTV 1080/720р] Отряд / Антиганг / Antigang ( Бенжамен Роше) [2015 г., боевик, драма, BDRip 1080p] Dub (Line) + Original makkol
3 | 0

0 | 626

19

06.02.2016 23:24

T Зарубежное кино [HDDVDRip / BDRip / WEB-DL / HDTV 1080/720р] Отряд / Антиганг / Antigang (Бенжамен Роше / Benjamin Rocher) [2015 г., боевик, драма, BDRip 720p] Dub (iTunes) + Original (Fre) + Sub (Eng, Fre) 90ytr90
97 | 3

0 | 519

10

29.05.2016 07:55

T Зарубежное кино [HDDVDRip / BDRip / WEB-DL / HDTV 1080/720р] Отряд / Антиганг / Antigang (Бенжамен Роше / Benjamin Rocher) [2015 г., боевик, драма, BDRip 1080p] Dub (iTunes) + Original (Fre) + Sub (Eng) 90ytr90
31 | 0

0 | 529

4

29.05.2016 08:02


Яндекс.Метрика powered by Sphinx


В Н И М А Н И Е
Сайт не распространяет и не хранит электронные версии произведений, а лишь бесплатно и без коммерческой выгоды (не требуя взамен платы,
SMS и т.д.) предоставляет доступ к создаваемому пользователями каталогу ссылок на торрент-файлы, которые содержат только списки хеш-сумм.
Убедительная просьба с жалобами обращаться напрямую к пользователю, разместившему торрент файл.

Вверх