Loading...
Error

Пришелец из космоса / Король фермы / El rey de la granja / King of the Farm (Грегорио Муро, Карлос Сабала) [2002 г., приключения, семейный, фантастика, DVDRip] MVO + Original

Статистика раздачи
Размер:  1,37 GB   |    Зарегистрирован:  10 месяцев   |    Скачан:  26 раз
Сидов:  1  |  0 KB/s  ]   Личеров:  0  |  0 KB/s  ]

* - сиды/пиры с внешних источников

   
 
Автор Сообщение

makkol Пол:Муж

05-Фев-2016 14:31

Пришелец из космоса / Король фермы / El rey de la granja / King of the Farm


Год выпуска: 2002
Жанр: приключения, семейный, фантастика
Страна: Испания
Режиссер: Грегорио Муро, Карлос Сабала
В ролях: Франциско Ларраньяга, Адриан Руис дель Сьерро, Ариана Арагонес, Хосу Иригойен, Рамон Агирре, Аитор Этксеберия, Карлос Аргиньяно, Элена Ирурета, Мар Саура, Хавьер Мартин, Пепин Тре, Иньяки Бераэче, Ксавьер Алькиза, Карра Элехальде
Сюжет фильма:
Где-то далеко-далеко, в неизвестной Галактике идет настоящая звездная война… А в это время на известной планете Земля, в известной Солнечной Системе простые городские школьники отправляются в лагерь на обычные летние каникулы. Тоска смертная! Им предстоит учиться фермерскому искусству: коровы, куры, сено… Жизнь испорчена навсегда. Кто поверит, что на ферме могут случиться настоящие космические приключения?! А они начинаются, потому что космический герой, преследуемый жестоким диктатором, залетает на незнакомую планету! Космическая необразованность становится причиной технической накладки: герой решает, что двухмерный мультяшный персонал, первое, с чем он сталкивается, начав виртуальную разведку на планете, - одна из форм местной жизни. Он трансформируется… Его капсула, отделившись от корабля, падает прямо в лагерь. Суперфантастическая сфера Нерония, способная управлять умами с помощью нейронитов, попадает в руки юного бунтовщика, недовольного тиранией взрослых. Отныне – он хозяин сферы. Она обязана исполнять его желания. Все! Взрослые в лагере больше не правят, но за Неронией охотится не только инопланетный герой, трансформированный в мультяшку, но и монстры-роботы, управляемые космическим диктатором…

  • Мировая премьера: 21 июня 2002
  • Российская премьера: 6 ноября 2003


Качество видео: DVDRip

Продолжительность: 01:18:58
Формат: AVI
Видео: XviD, 704x368, 25.000 fps, 2146 kbps
Аудио #1: русский, профессиональный многоголосый закадровый, MP3 2.0, 48 kHz, 192 kbps
Аудио #2: испанский, оригинал, AC3 2.0, 48 kHz, 128 kbps

Код:

Общее
Полное имя                               : El.rey.de.la.granja.2002.DVDRip.avi
Формат                                   : AVI
Формат/Информация                        : Audio Video Interleave
Размер файла                             : 1,37 Гбайт
Продолжительность                        : 1 ч. 18 м.
Общий поток                              : 2481 Кбит/сек
Программа кодирования                    : FairUse Wizard - http://fairusewizard.com
Библиотека кодирования                   : The best and REALLY easy backup tool

Видео
Идентификатор                            : 0
Формат                                   : MPEG-4 Visual
Профиль формата                          : Advanced Simple@L5
Параметр BVOP формата                    : 1
Параметр QPel формата                    : Нет
Параметр GMC формата                     : Без точки перехода
Параметр матрицы формата                 : Default (MPEG)
Режим смешивания                         : Сжатый битовый поток
Идентификатор кодека                     : XVID
Идентификатор кодека/Подсказка           : XviD
Продолжительность                        : 1 ч. 18 м.
Битрейт                                  : 2146 Кбит/сек
Ширина                                   : 704 пикселя
Высота                                   : 368 пикселей
Соотношение сторон                       : 1,913
Частота кадров                           : 25,000 кадров/сек
Цветовое пространство                    : YUV
Субдискретизация насыщенности            : 4:2:0
Битовая глубина                          : 8 бит
Тип развёртки                            : Прогрессивная
Метод сжатия                             : С потерями
Бит/(Пиксели*Кадры)                      : 0.331
Размер потока                            : 1,18 Гбайт (87%)
Библиотека кодирования                   : XviD 1.2.0.dev47 (UTC 2006-11-01)

Аудио #1
Идентификатор                            : 1
Формат                                   : MPEG Audio
Версия формата                           : Version 1
Профиль формата                          : Layer 3
Режим                                    : Joint stereo
Расширение режима                        : MS Stereo
Идентификатор кодека                     : 55
Идентификатор кодека/Подсказка           : MP3
Продолжительность                        : 1 ч. 18 м.
Вид битрейта                             : Постоянный
Битрейт                                  : 192 Кбит/сек
Каналы                                   : 2 канала
Частота                                  : 48,0 КГц
Метод сжатия                             : С потерями
Размер потока                            : 108 Мбайт (8%)
Выравнивание                             : Соединение по промежуткам
Продолжительность промежутка             : 40  мс. (1,00 видеокадр)
Время предзагрузки промежутка            : 504  мс.
Библиотека кодирования                   : LAME3.97
Настройки программы                      : -m j -V 4 -q 2 -lowpass 18.6 -b 192

Аудио #2
Идентификатор                            : 2
Формат                                   : MPEG Audio
Версия формата                           : Version 1
Профиль формата                          : Layer 3
Режим                                    : Joint stereo
Расширение режима                        : MS Stereo
Идентификатор кодека                     : 55
Идентификатор кодека/Подсказка           : MP3
Продолжительность                        : 1 ч. 18 м.
Вид битрейта                             : Постоянный
Битрейт                                  : 128 Кбит/сек
Каналы                                   : 2 канала
Частота                                  : 48,0 КГц
Метод сжатия                             : С потерями
Размер потока                            : 72,3 Мбайт (5%)
Выравнивание                             : Соединение по промежуткам
Продолжительность промежутка             : 40  мс. (1,00 видеокадр)
Время предзагрузки промежутка            : 504  мс.
Библиотека кодирования                   : LAME3.97
Настройки программы                      : -m j -V 4 -q 2 -lowpass 17 -b 128
picpicpicpicpic
Для увеличения картинки щелкните мышкой по превью

Этот торрент недоступен для скачивания без регистрации, однако доступен по публичной magnet-ссылке (источники с публичных трекеров). Перед использованием ссылки прочтите, пожалуйста Пользовательское соглашение, а также как можно дольше оставайтесь на раздаче! Для того, чтобы скачать сам торрент-файл (который видит больше источников), а также для того, чтобы поблагодарить релизера, вам необходимо зарегистрироваться. Если регистрироваться лень - вы можете также попробовать скачать релиз по нашим партнерским ссылкам ниже.

[underverse.su].t62734.torrent
Трекер: Зарегистрирован   [ 05.02.2016 14:31 ]  

Статус: проверено (by makkol at 05.02.2016 14:33)
Поблагодарили: пока никто не поблагодарил...
Тип торрента: публичный - доступные источники с открытых трекеров: 
Размер: 1,37 GB (занимает 0,31 DVDR, для записи нужно 1 болванка DVDR/RW)
 
 
Похожие темы
Форум Тема Автор Торрент Отв. Посл. сооб.
Зарубежное кино [DVDRip, Low-Res HDRip, и т.д.] Пришелец из космоса / Extraterrestre (Начо Вигалондо) [2011 г., фантастика, драма, комедия, DVDRip] RG NewCinema
2 | 0

2 | 553

43

31.08.2012 08:17

Зарубежное кино [DVDRip, Low-Res HDRip, и т.д.] Пришелец из будущего / Returner / Ritana (Такаши Ямазаки) [2002 г., фантастика, боевик, приключения, DVDRip] MVO 90ytr90
7 | 0

0 | 295

8

12.02.2015 08:55


Яндекс.Метрика powered by Sphinx


В Н И М А Н И Е
Сайт не распространяет и не хранит электронные версии произведений, а лишь бесплатно и без коммерческой выгоды (не требуя взамен платы,
SMS и т.д.) предоставляет доступ к создаваемому пользователями каталогу ссылок на торрент-файлы, которые содержат только списки хеш-сумм.
Убедительная просьба с жалобами обращаться напрямую к пользователю, разместившему торрент файл.

Вверх