Loading...
Error

Кокон 2: Возвращение / Cocoon: The Return (Дэниел Питри) [1988 г., фантастика, мелодрама, комедия, детектив, приключения, WEB-DLRip-AVC] MVO (1 канал) + Subs

Статистика раздачи
Размер:  1,46 GB   |    Зарегистрирован:  10 месяцев   |    Скачан:  17 раз

Полного источника не было: 7 месяцев

Сидов:  0  |  0 KB/s  ]   Личеров:  0  |  0 KB/s  ]

* - сиды/пиры с внешних источников

   
 
Автор Сообщение

Dryn9 Пол:Муж

05-Фев-2016 12:49

Кокон 2: Возвращение / Cocoon: The Return


Год выпуска: 1988
Жанр: фантастика, мелодрама, комедия, детектив, приключения
Страна: США
Режиссер: Дэниел Питри
В ролях: Дон Амичи, Уилфорд Бримли, Кортни Кокс, Хьюм Кронин, Джек Гилфорд, Стив Гуттенберг, Бэррет Оливер, Морин Стейплтон, Элейн Стритч, Джессика Тэнди, Гвен Вердон, Тэхни Уэлч
Субтитры: русские, английские
Сюжет фильма:
Продолжение истории о чудодейственном коконе, который когда-то забыли на Земле инопланетяне. Те же бравые старички, которые хотели омолодиться с помощью инопланетной силы, вновь ввязываются в увлекательную, но небезопасную авантюру- ведь чужаки в коконе опять вернулись на Землю, чтобы доставить массу беспокойства ее обитателям.

  • Мировая премьера: 23 ноября 1988


Качество видео: WEB-DLRip-AVC

Продолжительность: 01:56:22
Формат: MKV
Видео: MPEG-4 AVC, 832x468, 1680 kbps
Аудио: русский, многоголосый закадровый [профессиональный, 1 канал], AAC 2.0, 112 kbps
Субтитры: русские, английские вшитые отключаемые

Код:

Общее
Уникальный идентификатор : 182843283334306067638609315585152016811 (0x898E55E0132E16E7B139AC94323061AB)
Полное имя : M:RipsCocoon The ReturnCocoon.The.Return.1988.WEB-DLRip-AVC.MVO.1.45Gb.stalkerok.new-team.mkv
Формат : Matroska
Версия формата : Version 4 / Version 2
Размер файла : 1,46 Гбайт
Продолжительность : 1 ч. 56 м.
Общий поток : 1794 Кбит/сек
Название фильма : Cocoon: The Return (1988) (New-Team) (Rip by Stalker oK)
Дата кодирования : UTC 2016-02-05 11:07:20
Программа кодирования : mkvmerge v8.6.1 ('Flying') 64bit
Библиотека кодирования : libebml v1.3.3 + libmatroska v1.4.4

Видео
Идентификатор : 1
Формат : AVC
Формат/Информация : Advanced Video Codec
Профиль формата : High@L4.1
Параметр CABAC формата : Да
Параметр ReFrames формата : 14 кадров
Идентификатор кодека : V_MPEG4/ISO/AVC
Продолжительность : 1 ч. 56 м.
Битрейт : 1680 Кбит/сек
Ширина : 832 пикселя
Высота : 468 пикселей
Соотношение сторон : 16:9
Режим частоты кадров : Постоянный
Частота кадров : 23,976 (24000/1001) кадра/сек
Цветовое пространство : YUV
Субдискретизация насыщенности : 4:2:0
Битовая глубина : 8 бит
Тип развёртки : Прогрессивная
Бит/(Пиксели*Кадры) : 0.180
Размер потока : 1,37 Гбайт (94%)
Заголовок : Cocoon: The Return (1988) (New-Team) (Rip by Stalker oK)
Библиотека кодирования : x264 core 148 r2638kMod 7599210
Настройки программы : cabac=1 / ref=14 / deblock=1:-3:-3 / analyse=0x3:0x133 / me=umh / subme=11 / psy=1 / fade_compensate=0.00 / psy_rd=1.00:0.10 / mixed_ref=1 / me_range=48 / chroma_me=1 / trellis=2 / 8x8dct=1 / cqm=0 / deadzone=21,11 / fast_pskip=0 / chroma_qp_offset=-3 / threads=12 / lookahead_threads=3 / sliced_threads=0 / nr=0 / decimate=0 / interlaced=0 / bluray_compat=0 / constrained_intra=0 / fgo=0 / bframes=15 / b_pyramid=2 / b_adapt=2 / b_bias=0 / direct=3 / weightb=1 / open_gop=0 / weightp=2 / keyint=240 / keyint_min=23 / scenecut=40 / intra_refresh=0 / rc_lookahead=60 / rc=2pass / mbtree=0 / bitrate=1680 / ratetol=1.0 / qcomp=0.70 / qpmin=0 / qpmax=69 / qpstep=4 / cplxblur=20.0 / qblur=0.5 / vbv_maxrate=50000 / vbv_bufsize=62500 / nal_hrd=none / filler=0 / ip_ratio=1.40 / pb_ratio=1.30 / aq=3:0.90
Default : Да
Forced : Нет

Аудио
Идентификатор : 2
Формат : AAC
Формат/Информация : Advanced Audio Codec
Профиль формата : HE-AAC / LC
Идентификатор кодека : A_AAC
Продолжительность : 1 ч. 56 м.
Битрейт : 112 Кбит/сек
Каналы : 2 канала
Расположение каналов : Front: L R
Частота : 48,0 КГц / 24,0 КГц
Частота кадров : 23,438 кадра/сек (1024 spf)
Метод сжатия : С потерями
Задержка видео : 31 мс.
Размер потока : 93,2 Мбайт (6%)
Заголовок : MVO (1 канал)
Язык : Russian
Default : Да
Forced : Нет

Текст #1
Идентификатор : 3
Формат : UTF-8
Идентификатор кодека : S_TEXT/UTF8
Идентификатор кодека/Информация : UTF-8 Plain Text
Продолжительность : 1 ч. 50 м.
Битрейт : 68 бит/сек
Count of elements : 1108
Размер потока : 55,0 Кбайт (0%)
Язык : Russian
Default : Нет
Forced : Нет

Текст #2
Идентификатор : 4
Формат : UTF-8
Идентификатор кодека : S_TEXT/UTF8
Идентификатор кодека/Информация : UTF-8 Plain Text
Продолжительность : 1 ч. 50 м.
Битрейт : 48 бит/сек
Count of elements : 1170
Размер потока : 39,0 Кбайт (0%)
Язык : English
Default : Нет
Forced : Нет
picpicpic
Для увеличения картинки щелкните мышкой по превью

Этот торрент недоступен для скачивания без регистрации, однако доступен по публичной magnet-ссылке (источники с публичных трекеров). Перед использованием ссылки прочтите, пожалуйста Пользовательское соглашение, а также как можно дольше оставайтесь на раздаче! Для того, чтобы скачать сам торрент-файл (который видит больше источников), а также для того, чтобы поблагодарить релизера, вам необходимо зарегистрироваться. Если регистрироваться лень - вы можете также попробовать скачать релиз по нашим партнерским ссылкам ниже.

[underverse.su].t62731.torrent
Трекер: Зарегистрирован   [ 05.02.2016 12:49 ]  

Статус: проверено (by makkol at 05.02.2016 14:17)
Поблагодарили: 2 человека
Тип торрента: публичный - доступные источники с открытых трекеров: 
Размер: 1,46 GB (занимает 1/3 DVDR, для записи нужно 1 болванка DVDR/RW)
 
 

Яндекс.Метрика powered by Sphinx


В Н И М А Н И Е
Сайт не распространяет и не хранит электронные версии произведений, а лишь бесплатно и без коммерческой выгоды (не требуя взамен платы,
SMS и т.д.) предоставляет доступ к создаваемому пользователями каталогу ссылок на торрент-файлы, которые содержат только списки хеш-сумм.
Убедительная просьба с жалобами обращаться напрямую к пользователю, разместившему торрент файл.

Вверх