Loading...
Error

LEGO Friends: Лучшие подружки / LEGO Friends: Girlz 4 Life (Кристиан Чесхаир, Томас Миккельсен, Даррен Кэмпбел) [2016 г., мультфильм, семейный, HDRip] MVO

Статистика раздачи
Размер:  1,37 GB   |    Зарегистрирован:  10 месяцев   |    Скачан:  11 раз

Полного источника не было: 1 месяц 10 дней

Сидов:  0  |  0 KB/s  ]   Личеров:  0  |  0 KB/s  ]

* - сиды/пиры с внешних источников

   
 
Автор Сообщение

makkol Пол:Муж

05-Фев-2016 12:47

LEGO Friends: Лучшие подружки / LEGO Friends: Girlz 4 Life


Год выпуска: 2016
Жанр: мультфильм, семейный
Производство: США [Warner Bros]
Режиссер: Кристиан Чесхаир, Томас Миккельсен, Даррен Кэмпбел
Роли озвучивали: Эрика Мендез, Милли О"Коннор, Марианна Миллер, Рэйчел Хэгер, Алекса Кан
Сюжет фильма:
Красочный полнометражный мультфильм по мотивам популярного мультсериала LEGO «Подружки из Хартлейк Сити». «LEGO Friends: Лучшие подружки» – история приключений пяти очень разных, но очень дружных девочек, живущих в лего-городке. У каждой из них есть свое увлечение: Миа, например, обожает животных, Эмма самая спортивная, Оливия – настоящий изобретатель, Андреа танцует и поет, а Стефани – трудолюбивая девушка, которая любит готовить. Объединяет их не только крепкая дружба, но и общее дело – у девочек есть своя музыкальная группа. Однажды подруги узнают, что в Хартлейк Сити с концертом приезжает их любимая певица Ливи, и решают во что что бы то ни стало познакомиться с ней и показать звезде свои песни. Что ж, для этих девчонок нет ничего невозможного, несмотря на то, что у них есть серьезные конкуренты.

Качество видео: HDRip

Продолжительность: 01:19:43
Формат: AVI
Видео: XviD, 720x400 (16:9), 23.976 fps, 2062 kbps
Аудио: русский, профессиональный многоголосый закадровый (официальный звук), AC3 2.0, 48 kHz, 384 kbps

Код:

Общее
Формат                                   : AVI
Формат/Информация                        : Audio Video Interleave
Размер файла                             : 1,37 Гбайт
Продолжительность                        : 1 ч. 19 м.
Общий поток                              : 2455 Кбит/сек
Программа кодирования                    : VirtualDubMod 1.5.10.3 | www.virtualdub-fr.org || (build 2550/release)
Библиотека кодирования                   : VirtualDub build 32842/release

Видео
Идентификатор                            : 0
Формат                                   : MPEG-4 Visual
Профиль формата                          : Advanced Simple@L5
Параметр BVOP формата                    : 2
Параметр QPel формата                    : Нет
Параметр GMC формата                     : Без точки перехода
Параметр матрицы формата                 : Default (H.263)
Режим смешивания                         : Сжатый битовый поток
Идентификатор кодека                     : XVID
Идентификатор кодека/Подсказка           : XviD
Продолжительность                        : 1 ч. 19 м.
Битрейт                                  : 2062 Кбит/сек
Ширина                                   : 720 пикселей
Высота                                   : 400 пикселей
Соотношение сторон                       : 16:9
Частота кадров                           : 23,976 (23976/1000) кадра/сек
Цветовое пространство                    : YUV
Субдискретизация насыщенности            : 4:2:0
Битовая глубина                          : 8 бит
Тип развёртки                            : Прогрессивная
Метод сжатия                             : С потерями
Бит/(Пиксели*Кадры)                      : 0.299
Размер потока                            : 1,15 Гбайт (84%)
Библиотека кодирования                   : XviD 67

Аудио
Идентификатор                            : 1
Формат                                   : AC-3
Формат/Информация                        : Audio Coding 3
Расширение режима                        : CM (complete main)
Параметр Endianness формата              : Big
Идентификатор кодека                     : 2000
Продолжительность                        : 1 ч. 19 м.
Вид битрейта                             : Постоянный
Битрейт                                  : 384 Кбит/сек
Каналы                                   : 2 канала
Расположение каналов                     : Front: L R
Частота                                  : 48,0 КГц
Частота кадров                           : 31,250 кадров/сек (1536 spf)
Метод сжатия                             : С потерями
Размер потока                            : 219 Мбайт (16%)
Выравнивание                             : Разделение по промежуткам
Продолжительность промежутка             : 42  мс. (1,00 видеокадр)
Время предзагрузки промежутка            : 500  мс.
Релиз группы:

picpicpicpicpic
Для увеличения картинки щелкните мышкой по превью

Этот торрент недоступен для скачивания без регистрации, однако доступен по публичной magnet-ссылке (источники с публичных трекеров). Перед использованием ссылки прочтите, пожалуйста Пользовательское соглашение, а также как можно дольше оставайтесь на раздаче! Для того, чтобы скачать сам торрент-файл (который видит больше источников), а также для того, чтобы поблагодарить релизера, вам необходимо зарегистрироваться. Если регистрироваться лень - вы можете также попробовать скачать релиз по нашим партнерским ссылкам ниже.

[underverse.su].t62730.torrent
Трекер: Зарегистрирован   [ 05.02.2016 12:47 ]  

Статус: T временная (by makkol at 05.02.2016 23:13)
Поблагодарили: 1 человек
Тип торрента: публичный - доступные источники с открытых трекеров: 
Размер: 1,37 GB (занимает 0,31 DVDR, для записи нужно 1 болванка DVDR/RW)
 
 
Похожие темы
Форум Тема Автор Торрент Отв. Посл. сооб.
T Мультфильмы [HDDVDRip / BDRip / WEB-DL / HDTV 1080/720р] LEGO Friends: Лучшие подружки / LEGO Friends: Girlz 4 Life (Кристиан Чесхаир, Томас Миккельсен, Даррен Кэмпбел) [2016 г., мультфильм, семейный, BDRip 1080p] MVO + Original makkol
19 | 3

0 | 744

19

05.02.2016 12:59


Яндекс.Метрика powered by Sphinx


В Н И М А Н И Е
Сайт не распространяет и не хранит электронные версии произведений, а лишь бесплатно и без коммерческой выгоды (не требуя взамен платы,
SMS и т.д.) предоставляет доступ к создаваемому пользователями каталогу ссылок на торрент-файлы, которые содержат только списки хеш-сумм.
Убедительная просьба с жалобами обращаться напрямую к пользователю, разместившему торрент файл.

Вверх